<?xml version="1.0" standalone="no"?>
<!DOCTYPE svg PUBLIC "-//W3C//DTD SVG 1.1//EN" "http://www.w3.org/Graphics/SVG/1.1/DTD/svg11.dtd" >
<svg xmlns="http://www.w3.org/2000/svg">
<metadata>Generated by IcoMoon</metadata>
<defs>
<font id="festival-walk" horiz-adv-x="1024">
<font-face units-per-em="1024" ascent="1024" descent="0" />
<missing-glyph horiz-adv-x="1024" />
<glyph unicode="&#x20;" horiz-adv-x="0" d="" />
<glyph unicode="&#xe900;" glyph-name="arrow-right" d="M183.469 512c0 16.495 13.372 29.867 29.867 29.867h597.331c16.495 0 29.867-13.372 29.867-29.867 0-16.491-13.372-29.867-29.867-29.867h-597.331c-16.495 0-29.867 13.372-29.867 29.867zM490.884 192.218c-11.665 11.661-11.665 30.575 0 42.236l277.547 277.547-277.547 277.55c-11.665 11.663-11.665 30.574 0 42.238 11.661 11.663 30.575 11.663 42.236 0l298.667-298.668c11.665-11.661 11.665-30.575 0-42.236l-298.667-298.667c-11.661-11.665-30.575-11.665-42.236 0z" />
<glyph unicode="&#xe901;" glyph-name="arrow-left" d="M840.538 512c0 16.495-13.372 29.867-29.867 29.867h-597.335c-16.495 0-29.867-13.372-29.867-29.867 0-16.491 13.372-29.867 29.867-29.867h597.335c16.495 0 29.867 13.372 29.867 29.867zM533.12 192.218c11.665 11.661 11.665 30.575 0 42.236l-277.546 277.547 277.546 277.55c11.665 11.663 11.665 30.574 0 42.238-11.661 11.663-30.571 11.663-42.236 0l-298.667-298.668c-11.664-11.661-11.664-30.575 0-42.236l298.667-298.667c11.665-11.665 30.575-11.665 42.236 0z" />
<glyph unicode="&#xe902;" glyph-name="baby-boy" d="M277.135 426.010c17.673 0 32 14.327 32 32 0 19.388 15.716 35.106 35.105 35.106 19.387 0 35.104-15.718 35.104-35.106 0-17.673 14.327-32 32-32s32.001 14.327 32.001 32c0 54.733-44.371 99.106-99.104 99.106-54.735 0-99.105-44.373-99.105-99.106 0-17.673 14.327-32 32-32zM612.663 426.010c17.673 0 32 14.327 32 32 0 19.388 15.714 35.106 35.102 35.106 19.392 0 35.106-15.718 35.106-35.106 0-17.673 14.327-32 32-32s32 14.327 32 32c0 54.733-44.369 99.106-99.106 99.106-54.733 0-99.102-44.373-99.102-99.106 0-17.673 14.327-32 32-32zM511.996 289.66c-37.461 0-70.246 20.156-88.082 50.381-8.981 15.219-28.601 20.279-43.822 11.298s-20.279-28.604-11.297-43.823c28.854-48.9 82.141-81.856 143.201-81.856s114.347 32.956 143.202 81.856c8.981 15.219 3.921 34.842-11.298 43.823s-34.842 3.921-43.823-11.298c-17.835-30.225-50.62-50.381-88.081-50.381zM116.345 339.716c54.583-166.276 211.058-286.387 395.655-286.387s341.073 120.111 395.657 286.387c60.544 12.301 106.074 65.822 106.074 129.971 0 36.625-14.882 69.824-38.831 93.798l-0.021 0.026c-18.018 17.997-41.242 30.869-67.221 36.148-54.583 166.277-211.059 286.39-395.657 286.39s-341.073-120.113-395.655-286.39c-25.979-5.279-49.203-18.152-67.22-36.148l-0.024-0.026c-23.948-23.974-38.831-57.173-38.831-93.798 0-64.149 45.533-117.67 106.076-129.971zM512 117.329c-162.644 0-299.63 110.229-340.157 260.1l-6.27 23.189-24.016 0.452c-37.283 0.704-67.287 31.155-67.287 68.617 0 18.961 7.645 36.083 20.101 48.559 12.178 12.156 28.777 19.716 47.182 20.062l24.019 0.448 6.271 23.189c40.527 149.872 177.513 260.104 340.157 260.104s299.631-110.232 340.16-260.104l6.268-23.189 24.021-0.448c18.406-0.346 35.008-7.906 47.185-20.066 12.454-12.471 20.096-29.594 20.096-48.555 0-37.461-30.003-67.913-67.285-68.617l-24.017-0.452-6.268-23.189c-40.529-149.871-177.515-260.1-340.16-260.1zM512.009 635.908c-51.405 0-93.077 41.67-93.077 93.075 0 17.673-14.327 32-32 32s-32-14.327-32-32c0-86.751 70.324-157.075 157.077-157.075 86.75 0 157.077 70.324 157.077 157.075s-70.327 157.075-157.077 157.075h-19.605c-45.619 0-82.605 36.984-82.605 82.608 0 17.673-14.327 32-32 32s-32-14.327-32-32c0-80.969 65.638-146.608 146.605-146.608h19.605c51.405 0 93.077-41.671 93.077-93.075s-41.673-93.075-93.077-93.075zM211.595 968.648c0-80.967 65.636-146.607 146.607-146.607h153.811c17.673 0 32 14.327 32 32s-14.327 32-32 32h-153.811c-45.623 0-82.607 36.985-82.607 82.607 0 17.673-14.327 32-32 32s-32-14.327-32-32z" />
<glyph unicode="&#xe903;" glyph-name="calendar" d="M96 758.154c0 45.907 36.491 84.513 83.2 84.513h665.6c46.707 0 83.2-38.606 83.2-84.513v-577.64c0-45.905-36.493-84.514-83.2-84.514h-665.6c-46.709 0-83.2 38.609-83.2 84.514v577.64zM179.2 778.667c-9.845 0-19.2-8.415-19.2-20.513v-577.64c0-12.1 9.356-20.514 19.2-20.514h665.6c9.843 0 19.2 8.418 19.2 20.514v577.64c0 12.097-9.357 20.513-19.2 20.513h-665.6zM96 597.333c0 17.673 14.327 32 32 32h768c17.673 0 32-14.327 32-32s-14.327-32-32-32h-768c-17.673 0-32 14.327-32 32zM341.333 928c17.673 0 32-14.327 32-32v-170.667c0-17.673-14.327-32-32-32s-32 14.327-32 32v170.667c0 17.673 14.327 32 32 32zM682.667 928c17.673 0 32-14.327 32-32v-170.667c0-17.673-14.327-32-32-32s-32 14.327-32 32v170.667c0 17.673 14.327 32 32 32zM330.667 426.697l-64-0.030v42.641l64 0.026v-42.637zM330.667 256.030l-64-0.030v42.641l64 0.026v-42.637zM544 426.697l-64-0.030v42.641l64 0.026v-42.637zM544 256.030l-64-0.030v42.641l64 0.026v-42.637zM757.333 426.697l-64-0.030v42.641l64 0.026v-42.637zM757.333 256.030l-64-0.030v42.641l64 0.026v-42.637z" />
<glyph unicode="&#xe904;" glyph-name="care" d="M110.956 516.425c44.243 31.095 104.178 25.634 142.175-12.851 1.241-1.254 2.376-2.615 3.393-4.058l76.91-109.231c18.42 36.207 55.76 61.167 99.197 61.171-0.004 0 0.004 0 0 0l339.755 0.141c102.097 0.043 184.887-82.709 184.887-184.811 0-17.673-14.327-32-32-32s-32 14.327-32 32c0 66.743-54.118 120.836-120.862 120.811l-339.755-0.141c-25.84 0-47.471-21.316-47.471-48.435 0-27.11 21.617-48.431 47.459-48.431 17.668 0 31.996-14.323 32-31.996 0-17.673-14.319-32-31.991-32.004-0.004 0 0.004 0 0 0-39.84-0.009-77.082 19.767-99.38 52.762l-127.353 180.868c-16.125 14.827-40.189 16.478-58.161 3.844-11.138-7.829-16.383-18.722-16.963-32.115-0.615-14.204 4.247-31.066 14.331-46.263l143.459-212.787c22.22-34.624 60.533-55.561 101.675-55.561h535.013c17.673 0 32-14.327 32-32s-14.327-32-32-32h-535.013c-62.81 0-121.309 31.902-155.331 84.672l-143.046 212.16c-16.369 24.619-26.323 54.677-25.028 84.548 1.331 30.711 14.748 61.077 44.102 81.707zM400.634 258.594c0 17.673 14.327 32 32.002 32h210.795c17.673 0 32-14.327 32-32 0-17.677-14.327-32-32-32h-210.795c-17.675 0-32.002 14.323-32.002 32zM618.778 906.667c-70.084 0-126.899-56.813-126.899-126.895s56.815-126.895 126.899-126.895c70.080 0 126.895 56.813 126.895 126.895s-56.815 126.895-126.895 126.895zM427.878 779.771c0 105.428 85.47 190.895 190.899 190.895 105.425 0 190.895-85.467 190.895-190.895s-85.47-190.895-190.895-190.895c-105.429 0-190.899 85.466-190.899 190.895zM770.027 526.238c-83.537 83.535-218.974 83.535-302.511 0-12.497-12.497-32.755-12.497-45.254 0-12.497 12.497-12.497 32.759 0 45.252 108.529 108.531 284.49 108.531 393.017 0 12.497-12.493 12.497-32.755 0-45.252-12.493-12.497-32.755-12.497-45.252 0z" />
<glyph unicode="&#xe905;" glyph-name="check" d="M885.116 799.257c14.511-15.214 14.511-39.88 0-55.093l-495.484-519.421c-14.513-15.211-38.042-15.211-52.554 0l-198.193 207.77c-14.512 15.215-14.512 39.881 0 55.091 14.512 15.215 38.042 15.215 52.554 0l171.916-180.22 469.208 491.873c14.511 15.213 38.042 15.213 52.553 0z" />
<glyph unicode="&#xe906;" glyph-name="chevron-down" d="M889.754 667.582l-356.42-356.418-356.417 356.418 30.17 30.17 326.247-326.249 326.251 326.249 30.17-30.17z" />
<glyph unicode="&#xe907;" glyph-name="chevron-left" d="M646.249 868.418l-356.419-356.418 356.419-356.42 30.17 30.174-326.25 326.246 326.25 326.249-30.17 30.17z" />
<glyph unicode="&#xe908;" glyph-name="chevron-up" d="M176.914 356.42l356.419 356.416 356.416-356.416-30.17-30.174-326.246 326.25-326.249-326.25-30.17 30.174z" />
<glyph unicode="&#xe909;" glyph-name="close" d="M879.659 114.167l-724.076 724.078 30.17 30.17 724.076-724.079-30.17-30.17zM909.828 836.995l-724.078-724.078-30.17 30.17 724.078 724.078 30.17-30.17z" />
<glyph unicode="&#xe90a;" glyph-name="contact" d="M782.455 346.15l-208.836 37.449c-8.764 1.566-17.694-1.634-23.454-8.414l-48.021-56.469c-81.14 40.589-146.743 106.176-187.352 187.315l56.462 48.081c6.77 5.764 9.968 14.69 8.4 23.445l-37.465 208.858c-2.136 11.915-12.501 20.587-24.606 20.587h-161.207c-41.355 0-75-33.645-75-75v-39.323c0-334.889 272.454-607.345 607.345-607.345h39.322c41.357 0 74.999 33.647 74.999 75.004v161.203c0 12.105-8.67 22.473-20.587 24.61zM753.045 160.337c0-13.786-11.217-25.003-25.003-25.003h-39.322c-307.32 0-557.345 250.022-557.345 557.344v39.323c0 13.785 11.215 25 25 25h140.292l31.233-174.137-60.103-51.183c-8.448-7.194-11.143-19.098-6.62-29.227 47.258-105.83 131.572-190.127 237.413-237.359 10.133-4.518 22.042-1.822 29.231 6.635l51.123 60.113 174.101-31.219v-140.288zM859.708 938.667h-351.671c-41.353 0-74.999-33.645-74.999-75v-251.665c0-41.356 33.647-74.999 74.999-74.999h113.335l42.5-56.666c10.005-13.338 30.020-13.312 40 0l42.5 56.666h113.335c41.353 0 74.999 33.643 74.999 74.999v251.665c0 41.355-33.643 75-74.999 75zM884.706 612.002c0-13.785-11.213-24.998-24.998-24.998h-125.833c-7.868 0-15.279-3.708-20.002-10.001l-29.999-40-29.999 40c-4.723 6.293-12.13 10.001-20.002 10.001h-125.833c-13.786 0-25.003 11.213-25.003 24.998v251.665c0 13.785 11.217 25 25.003 25h351.667c13.786 0 24.998-11.215 24.998-25v-251.665zM583.876 662.001c13.807 0 24.998 11.193 24.998 25s-11.191 25-24.998 25c-13.807 0-24.998-11.193-24.998-25s11.191-25 24.998-25zM683.874 662.001c13.807 0 25.003 11.193 25.003 25s-11.196 25-25.003 25c-13.807 0-24.998-11.193-24.998-25s11.191-25 24.998-25zM783.876 662.001c13.807 0 25.003 11.193 25.003 25s-11.196 25-25.003 25c-13.807 0-24.998-11.193-24.998-25s11.191-25 24.998-25z" />
<glyph unicode="&#xe90b;" glyph-name="e-voucher" horiz-adv-x="983" d="M954.683 576.59c15.663 0 28.357 12.698 28.357 28.357v151.238c0 15.661-12.698 28.357-28.357 28.357h-926.327c-15.66 0-28.356-12.695-28.356-28.357v-151.238c0-15.659 12.697-28.357 28.356-28.357 46.908 0 85.071-38.158 85.071-85.070 0-46.907-38.162-85.070-85.071-85.070-15.66 0-28.356-12.698-28.356-28.357v-151.237c0-15.663 12.697-28.357 28.356-28.357h926.327c15.663 0 28.357 12.698 28.357 28.357v151.237c0 15.659-12.698 28.357-28.357 28.357-46.907 0-85.070 38.162-85.070 85.070 0 46.911 38.162 85.070 85.070 85.070zM926.327 352.584v-97.37h-595.495v85.070c0 15.663-12.697 28.357-28.357 28.357s-28.357-12.698-28.357-28.357v-85.070h-217.405v97.37c64.637 13.177 113.428 70.468 113.428 138.936s-48.791 125.762-113.428 138.935v97.373h217.404v-85.071c0-15.661 12.697-28.357 28.356-28.357s28.357 12.697 28.357 28.357v85.071h595.497v-97.373c-64.639-13.175-113.431-70.466-113.431-138.935s48.796-125.764 113.431-138.936zM302.473 557.687c-15.661 0-28.357-12.698-28.357-28.357v-75.62c0-15.659 12.697-28.357 28.357-28.357s28.357 12.698 28.357 28.357v75.62c0.002 15.659-12.695 28.357-28.357 28.357zM658.706 573.129c5.345-6.509 10.596-14.23 15.749-23.155l7.283-13.644c1.995-3.457 1.208-6.214-2.363-8.274l-139.715-80.667c-1.487-0.86-1.815-2.007-0.983-3.449 6.377-8.983 11.457-14.688 15.237-17.113 19.112-16.609 42.586-17.064 70.427-1.376 20.234 11.686 31.65 29.024 34.247 52.019 0.193 2.417 1.18 4.137 2.966 5.169 1.192 0.688 2.482 0.856 3.875 0.508l40.391-6.050c3.842-0.467 5.616-2.515 5.329-6.136-1.913-17.994-8.61-34.914-20.095-50.758-11.186-15.671-26.153-28.922-44.9-39.743-23.212-13.402-45.912-19.788-68.096-19.161-21.885 0.799-41.787 8.122-59.699 21.967-15.819 11.596-31.711 31.212-47.669 58.851-9.638 16.699-15.667 31.265-18.080 43.692-5.685 23.589-3.67 45.867 6.050 66.834 9.847 21.426 26.378 38.838 49.59 52.24 58.622 33.846 108.777 23.261 150.458-31.756zM533.185 561.697c-11.014-6.357-18.657-14.418-22.938-24.183-4.153-9.306-4.973-19.571-2.462-30.79 1.040-5.927 3.506-12.947 7.401-21.066 0.233-1.782 1.245-2.159 3.031-1.126l90.612 52.314c1.491 0.86 1.819 2.011 0.987 3.449-4.751 6.853-8.802 11.809-12.153 14.864-8.663 8.819-18.674 13.787-30.032 14.909-11.063 1.29-22.544-1.499-34.447-8.372z" />
<glyph unicode="&#xe90c;" glyph-name="filter" d="M839.253 398.080c-53.76 0-98.133-37.12-110.507-87.040h-581.12c-18.773 0-33.707-14.933-33.707-33.707s14.933-33.707 33.707-33.707h585.813c16.64-42.667 57.6-72.96 105.813-72.96 62.72 0 113.92 50.773 113.92 113.92s-50.773 113.92-113.92 113.92zM839.253 227.413c-31.573 0-56.747 25.6-56.747 56.747s25.6 56.747 56.747 56.747 56.747-25.6 56.747-56.747-25.6-56.747-56.747-56.747zM833.707 768h-567.467c-12.8 49.067-56.747 85.333-109.653 85.333-62.72 0-113.92-50.773-113.92-113.92s50.773-113.92 113.92-113.92c49.067 0 90.453 31.147 106.667 74.667h570.88c18.773 0 33.707 14.933 33.707 33.707s-14.933 33.707-33.707 33.707zM156.587 682.667c-31.573 0-56.747 25.6-56.747 56.747s25.6 56.747 56.747 56.747 56.747-25.6 56.747-56.747-25.6-56.747-56.747-56.747z" />
<glyph unicode="&#xe90d;" glyph-name="first-aid" d="M512 138.667c-8.107 0-16.213 2.987-22.613 9.387l-325.547 325.547c-45.653 45.653-70.827 106.24-70.827 170.667s25.173 125.013 70.827 170.667c45.653 45.653 106.24 70.827 170.667 70.827s125.013-25.173 170.667-70.827l6.827-6.827 6.827 6.827c45.653 45.653 106.24 70.827 170.667 70.827s125.013-25.173 170.667-70.827c93.867-93.867 93.867-247.040 0-341.333l-325.547-325.547c-6.4-6.4-14.507-9.387-22.613-9.387zM334.507 821.333c-47.36 0-91.733-18.347-125.44-52.053s-52.053-78.080-52.053-125.44 18.347-91.733 52.053-125.44l302.933-302.933 302.933 302.933c69.12 69.12 69.12 181.76 0 250.88-33.28 33.28-78.080 52.053-125.44 52.053s-91.733-18.347-125.44-52.053l-29.44-29.44c-12.373-12.373-32.853-12.373-45.227 0l-29.44 29.44c-33.28 33.28-78.080 52.053-125.44 52.053zM935.68 480h-249.6c-17.493 0-32 14.507-32 32s14.507 32 32 32h249.6c17.493 0 32-14.507 32-32s-14.507-32-32-32zM301.227 480h-212.907c-17.493 0-32 14.507-32 32s14.507 32 32 32h212.907c17.493 0 32-14.507 32-32s-14.507-32-32-32zM300.8 480c-4.267 0-8.107 0.853-12.373 2.56-16.213 6.827-23.893 25.6-17.067 41.813l73.813 175.787c6.827 16.213 25.6 23.893 41.813 17.067s23.893-25.6 17.067-41.813l-73.813-175.787c-5.12-12.373-17.067-19.627-29.44-19.627zM508.587 392.107c-11.52 0-23.040 6.4-28.587 17.493l-133.547 263.68c-8.107 15.787-1.707 34.987 14.080 43.093s34.987 1.707 43.093-14.080l133.547-263.68c8.107-15.787 1.707-34.987-14.080-43.093-4.693-2.133-9.387-3.413-14.507-3.413zM508.587 392.107c-5.547 0-10.667 1.28-15.787 4.267-15.36 8.96-20.48 28.16-11.947 43.52l110.933 193.28c8.533 15.36 28.16 20.907 43.52 11.947s20.48-28.16 11.947-43.52l-110.933-193.28c-5.973-10.24-16.64-16.213-27.733-16.213zM686.080 480c-10.667 0-20.907 5.12-26.88 14.933l-66.987 105.387c-9.387 14.933-5.12 34.56 9.813 44.373 14.933 9.387 34.56 5.12 44.373-9.813l66.987-105.387c9.387-14.933 5.12-34.56-9.813-44.373-5.12-3.413-11.093-5.12-17.067-5.12z" />
<glyph unicode="&#xe90e;" glyph-name="floorplan" d="M170.667 853.333v-682.667h500.002v40h-198.921v218.402h32.252v40h-132.25v-40h59.998v-218.402h-221.082v218.402h58.917v40h-58.917v75.499h58.917v40h-58.917v228.766h338.458v-228.766h-177.374v-40h352.030v40h-134.656v228.766h224.209v-344.265h-222.080v-177.067h40v137.067h182.080v-218.402h-41.331v-40h81.331v682.667h-682.667z" />
<glyph unicode="&#xe90f;" glyph-name="gift-card" d="M203.849 780.803c-26.948 26.944-70.648 26.944-97.6 0-26.948-26.948-26.948-70.655 0-97.611 20.541-20.533 143.511-62.4 145.416-45.299-2.964 40.762-17.645 112.743-47.816 142.91zM207.864 488.973c-11.098-10.807-28.86-10.551-39.651 0.555-10.806 11.102-10.562 28.855 0.544 39.65l54.31 52.821c-30.231 2.342-63.343 11.388-92.029 22.966v-360.259h123.733v289.882l-46.907-45.615zM361.16 567.202l43.729-45.871c10.678-11.23 10.234-28.983-0.984-39.654-11.234-10.684-28.988-10.249-39.662 0.981l-53.225 55.821v-293.773h622.524v322.496h-572.383zM490.458 820.566c18.167-18.167 29.594-40.544 34.266-63.988h410.372c30.135 0 54.694-24.556 54.694-54.697v-458.737c0-30.135-24.559-54.694-54.694-54.694h-805.612c-30.137 0-54.693 24.559-54.693 54.694v392.885c-29.438 23.628-45.003 60.785-45.003 95.97 0 69.175 56.090 125.265 125.258 125.265 32.064 0 64.12-12.233 88.574-36.698 12.823-12.815 24.852-33.044 34.847-55.944 9.994 22.9 22.024 43.129 34.854 55.944 48.912 48.931 128.215 48.931 177.136 0zM523.098 700.33c-5.431-20.845-16.316-40.574-32.644-56.901-6.963-6.963-16.102-13.683-26.662-19.974h469.751v76.875h-410.445zM470.895 731.999c0 38.118-30.891 69.018-69.007 69.018-17.667 0-35.331-6.738-48.803-20.214-29.57-29.57-44.74-100.713-47.816-142.91 1.844-16.601 124.082 23.974 145.411 45.299 13.478 13.48 20.215 31.148 20.215 48.807zM648.538 300.954c-15.535 0-28.122 12.595-28.122 28.126 0 15.539 12.587 28.122 28.122 28.122h134.989c15.526 0 28.122-12.582 28.122-28.122 0-15.531-12.595-28.126-28.122-28.126h-134.989zM648.538 413.457c-15.535 0-28.122 12.587-28.122 28.126 0 15.531 12.587 28.122 28.122 28.122h200.623c15.535 0 28.126-12.591 28.126-28.122 0-15.539-12.591-28.126-28.126-28.126h-200.623z" />
<glyph unicode="&#xe910;" glyph-name="grid" d="M184.013 938.667h195.974c54.411 0 98.682-44.268 98.682-98.68v-195.974c0-54.411-44.271-98.682-98.682-98.682h-195.974c-54.412 0-98.68 44.271-98.68 98.682v195.974c0 54.412 44.268 98.68 98.68 98.68zM379.987 612c17.652 0 32.013 14.362 32.013 32.013v195.974c0 17.652-14.362 32.013-32.013 32.013h-195.974c-17.652 0-32.013-14.362-32.013-32.013v-195.974c0-17.652 14.362-32.013 32.013-32.013h195.974zM645.333 938.667h193.331c55.142 0 100.002-44.86 100.002-100v-193.333c0-55.138-44.86-100.002-100.002-100.002h-193.331c-55.138 0-100.002 44.864-100.002 100.002v193.333c0 55.14 44.864 100 100.002 100zM838.665 612c18.381 0 33.335 14.953 33.335 33.333v193.333c0 18.38-14.955 33.333-33.335 33.333h-193.331c-18.381 0-33.331-14.953-33.331-33.333v-193.333c0-18.38 14.95-33.333 33.331-33.333h193.331zM379.987 478.669h-195.974c-54.412 0-98.68-44.271-98.68-98.684v-195.972c0-54.413 44.268-98.679 98.68-98.679h195.974c54.411 0 98.682 44.267 98.682 98.679v195.972c0 54.413-44.271 98.684-98.682 98.684zM412 184.013c0-17.651-14.362-32.013-32.013-32.013h-195.974c-17.652 0-32.013 14.362-32.013 32.013v195.972c0 17.651 14.362 32.013 32.013 32.013h195.974c17.652 0 32.013-14.362 32.013-32.013v-195.972zM645.333 478.669h193.331c55.142 0 100.002-44.864 100.002-100.002v-193.331c0-55.142-44.86-100.002-100.002-100.002h-193.331c-55.138 0-100.002 44.86-100.002 100.002v193.331c0 55.138 44.864 100.002 100.002 100.002zM838.665 152c18.381 0 33.335 14.955 33.335 33.335v193.331c0 18.381-14.955 33.331-33.335 33.331h-193.331c-18.381 0-33.331-14.95-33.331-33.331v-193.331c0-18.381 14.95-33.335 33.331-33.335h193.331z" />
<glyph unicode="&#xe911;" glyph-name="information" d="M491.046 646.485c-15.471 0-28.442 5.006-38.912 15.019-10.010 10.467-15.019 23.438-15.019 38.912 0 15.929 5.009 28.899 15.019 38.912 10.014 10.013 22.985 15.019 38.912 15.019 15.932 0 28.902-5.006 38.912-15.019 10.014-10.013 15.019-22.983 15.019-38.912 0-15.474-5.231-28.445-15.701-38.912-10.010-10.013-22.754-15.019-38.229-15.019zM450.086 256c-2.274 0-4.322 0.683-6.144 2.048-1.365 1.822-2.048 3.87-2.048 6.144v335.189c0 2.275 0.683 4.096 2.048 5.461 1.822 1.821 3.87 2.731 6.144 2.731h79.872c2.278 0 4.096-0.91 5.461-2.731 1.822-1.365 2.731-3.186 2.731-5.461v-335.189c0-2.274-0.909-4.322-2.731-6.144-1.365-1.365-3.183-2.048-5.461-2.048h-79.872z" />
<glyph unicode="&#xe912;" glyph-name="language" d="M672 768h-576c-17.6 0-32 14.4-32 32s14.4 32 32 32h576c17.6 0 32-14.4 32-32s-14.4-32-32-32zM384 768c-17.6 0-32 14.4-32 32v96c0 17.6 14.4 32 32 32s32-14.4 32-32v-96c0-17.6-14.4-32-32-32zM928 96c-12.399 0-24.201 7.202-29.402 19.401l-162.598 379.401-162.598-379.401c-7.002-16.201-25.801-23.799-42.001-16.802-16.201 7.002-23.799 25.801-16.802 42.001l192 448c5.001 11.801 16.602 19.401 29.402 19.401s24.401-7.6 29.402-19.401l192-448c6.997-16.201-0.602-34.999-16.802-42.001-4.198-1.801-8.401-2.598-12.599-2.598zM869.001 224h-266.001c-17.6 0-32 14.4-32 32s14.4 32 32 32h266.001c17.6 0 32-14.4 32-32s-14.4-32-32-32zM160 224c-11 0-21.6 5.598-27.6 15.799-9 15.202-4 34.799 11.2 43.802 1.2 0.597 118.8 71.198 229.4 206.601 109.999 134.598 157.999 315.998 158.4 317.798 4.399 17 21.798 27.4 39.002 23 17.199-4.4 27.396-21.8 22.997-39-2.001-8-51.797-196.399-170.799-342.199-118-144.802-241.2-218.202-246.4-221.402-5-2.999-10.6-4.399-16.2-4.399zM512 320c-6.801 0-13.602 2.202-19.601 6.601-2.999 2.398-74.199 57.6-149.799 155.802-75 97.199-113.6 171.798-115.2 174.998-8 15.8-1.8 35 13.8 43 15.8 8 35 1.8 43-13.8 0.4-0.8 37.8-72.8 108.8-165.001 70.198-91.2 137.599-143.599 138.2-144.201 13.999-10.799 16.602-30.997 5.798-44.8-5.999-8.401-15.398-12.599-24.998-12.599z" />
<glyph unicode="&#xe913;" glyph-name="link" d="M569.34 857.414c0 0 0 0 0 0l-99.473-99.482c-14.246-14.247-37.346-14.248-51.593-0.002s-14.248 37.344-0.002 51.59l99.475 99.484c108.041 108.040 283.204 108.040 391.253 0.002 108.036-108.041 108.036-283.208 0-391.249 0 0 0 0 0 0l-99.477-99.482c-14.246-14.246-37.346-14.246-51.593 0s-14.246 37.342 0 51.588l99.477 99.486c79.548 79.546 79.548 208.518 0 288.066-79.552 79.548-208.521 79.545-288.068 0zM266.062 605.728c14.247-14.244 14.248-37.344 0.002-51.59l-99.476-99.482c-79.547-79.548-79.548-208.525-0.001-288.073s208.518-79.548 288.065 0c0 0 0 0 0 0l99.477 99.486c14.246 14.246 37.342 14.246 51.588 0 14.246-14.242 14.251-37.342 0.004-51.588l-99.477-99.486c-108.039-108.041-283.208-108.041-391.248 0-108.040 108.036-108.040 283.209-0.001 391.249 0 0 0 0 0 0l99.476 99.482c14.246 14.247 37.344 14.248 51.59 0.002zM673.66 673.658c14.246-14.246 14.246-37.344 0-51.59l-271.727-271.727c-14.246-14.246-37.344-14.246-51.59 0s-14.246 37.346 0 51.593l271.725 271.725c14.246 14.246 37.346 14.246 51.593 0z" />
<glyph unicode="&#xe914;" glyph-name="list" d="M171.151 765.107c0-25.161-20.398-45.559-45.559-45.559s-45.559 20.398-45.559 45.559c0 25.162 20.398 45.559 45.559 45.559s45.559-20.398 45.559-45.559zM323.437 798.855h586.767c18.641 0 33.749-15.109 33.749-33.748s-15.108-33.748-33.749-33.748h-586.767c-18.639 0-33.748 15.109-33.748 33.748s15.109 33.748 33.748 33.748zM323.437 545.749h586.767c18.641 0 33.749-15.113 33.749-33.749s-15.108-33.749-33.749-33.749h-586.767c-18.639 0-33.748 15.113-33.748 33.749s15.109 33.749 33.748 33.749zM910.204 292.642h-586.767c-18.639 0-33.748-15.113-33.748-33.749 0-18.641 15.109-33.749 33.748-33.749h586.767c18.641 0 33.749 15.108 33.749 33.749 0 18.637-15.108 33.749-33.749 33.749zM125.591 466.441c25.162 0 45.559 20.399 45.559 45.559s-20.398 45.559-45.559 45.559c-25.161 0-45.559-20.399-45.559-45.559s20.398-45.559 45.559-45.559zM171.151 258.893c0-25.161-20.398-45.559-45.559-45.559s-45.559 20.399-45.559 45.559c0 25.161 20.398 45.559 45.559 45.559s45.559-20.399 45.559-45.559z" />
<glyph unicode="&#xe915;" glyph-name="location" d="M512 871.111c-76.382 0-149.636-30.342-203.647-84.353s-84.353-127.264-84.353-203.645c0-111.582 72.503-219.337 151.23-302.438 38.709-40.858 77.527-74.295 106.703-97.532 11.891-9.468 22.14-17.207 30.067-23.027 7.927 5.82 18.176 13.559 30.067 23.027 29.175 23.236 67.994 56.674 106.701 97.532 78.729 83.102 151.232 190.857 151.232 302.438 0 76.381-30.345 149.635-84.352 203.645-54.012 54.010-127.266 84.353-203.648 84.353zM512 120.887c-17.749-26.624-17.766-26.611-17.766-26.611l-0.098 0.064-0.23 0.154-0.802 0.542c-0.683 0.465-1.664 1.135-2.918 2.001-2.505 1.737-6.114 4.275-10.671 7.565-9.105 6.575-22.012 16.183-37.449 28.476-30.822 24.546-72.005 59.998-113.295 103.582-81.273 85.79-168.77 209.143-168.77 346.453 0 93.355 37.085 182.887 103.098 248.9s155.545 103.098 248.902 103.098c93.355 0 182.891-37.085 248.9-103.098 66.014-66.013 103.1-155.546 103.1-248.9 0-137.31-87.497-260.663-168.768-346.453-41.293-43.584-82.475-79.036-113.297-103.582-15.437-12.292-28.343-21.901-37.449-28.476-4.557-3.29-8.166-5.828-10.671-7.565-1.254-0.866-2.236-1.536-2.918-2.001l-0.802-0.542-0.23-0.154-0.073-0.047c0 0-0.043-0.030-17.792 26.594zM512 120.887l17.749-26.624c-10.748-7.168-24.768-7.155-35.516 0.013l17.766 26.611zM512 657.777c-41.237 0-74.667-33.429-74.667-74.665s33.429-74.667 74.667-74.667 74.667 33.429 74.667 74.667c0 41.236-33.429 74.665-74.667 74.665zM373.333 583.113c0 76.582 62.084 138.665 138.667 138.665s138.667-62.083 138.667-138.665c0-76.587-62.084-138.667-138.667-138.667s-138.667 62.080-138.667 138.667z" />
<glyph unicode="&#xe916;" glyph-name="mail" d="M170.667 821.333c-29.26 0-53.333-24.073-53.333-53.333v-512c0-29.261 24.073-53.333 53.333-53.333h682.667c29.261 0 53.333 24.073 53.333 53.333v512c0 29.26-24.073 53.333-53.333 53.333h-682.667zM53.333 768c0 64.606 52.727 117.333 117.333 117.333h682.667c64.606 0 117.333-52.727 117.333-117.333v-512c0-64.606-52.727-117.333-117.333-117.333h-682.667c-64.606 0-117.333 52.727-117.333 117.333v512zM59.118 786.351c10.135 14.479 30.088 18 44.566 7.865l408.316-285.821 408.316 285.821c14.477 10.135 34.432 6.614 44.565-7.865 10.138-14.478 6.613-34.431-7.863-44.566l-426.667-298.665c-11.017-7.714-25.685-7.714-36.702 0l-426.666 298.665c-14.479 10.135-18 30.088-7.865 44.566z" />
<glyph unicode="&#xe917;" glyph-name="menu" d="M1024 661.333h-1024v42.667h1024v-42.667zM1024 320h-1024v42.667h1024v-42.667z" />
<glyph unicode="&#xe918;" glyph-name="movie" d="M224 864c-35.346 0-64-28.654-64-64v-576c0-35.345 28.654-64 64-64h576c35.345 0 64 28.655 64 64v576c0 35.346-28.655 64-64 64h-576zM96 800c0 70.692 57.308 128 128 128h576c70.694 0 128-57.308 128-128v-576c0-70.694-57.306-128-128-128h-576c-70.692 0-128 57.306-128 128v576zM320 928c17.673 0 32-14.327 32-32v-768c0-17.673-14.327-32-32-32s-32 14.327-32 32v768c0 17.673 14.327 32 32 32zM704 928c17.673 0 32-14.327 32-32v-768c0-17.673-14.327-32-32-32s-32 14.327-32 32v768c0 17.673 14.327 32 32 32zM96 704c0 17.673 14.327 32 32 32h192c17.673 0 32-14.327 32-32s-14.327-32-32-32h-192c-17.673 0-32 14.327-32 32zM96 320c0 17.673 14.327 32 32 32h192c17.673 0 32-14.327 32-32s-14.327-32-32-32h-192c-17.673 0-32 14.327-32 32zM96 512c0 17.673 14.327 32 32 32h768c17.673 0 32-14.327 32-32s-14.327-32-32-32h-768c-17.673 0-32 14.327-32 32zM672 704c0 17.673 14.327 32 32 32h192c17.673 0 32-14.327 32-32s-14.327-32-32-32h-192c-17.673 0-32 14.327-32 32zM672 320c0 17.673 14.327 32 32 32h192c17.673 0 32-14.327 32-32s-14.327-32-32-32h-192c-17.673 0-32 14.327-32 32z" />
<glyph unicode="&#xe919;" glyph-name="pet" d="M519.292 526.182c-0.162 0-0.324 0-0.486 0-74.692-0.26-135.463-61.781-135.463-137.148v-3.209c0-42.18 34.315-76.497 76.493-76.497h118.899c42.18 0 76.493 34.317 76.493 76.497v4.412c0 36.403-14.199 70.596-39.983 96.294-25.668 25.579-59.729 39.65-95.953 39.65zM605.44 385.826c0-14.729-11.981-26.709-26.709-26.709h-118.895c-14.729 0-26.709 11.981-26.709 26.709v3.209c0 48.009 38.515 87.194 85.85 87.36h0.307c22.959 0 44.548-8.917 60.817-25.131 16.341-16.286 25.34-37.956 25.34-61.026v-4.412zM519.287 575.97c41.182 0 74.684 33.503 74.684 74.682s-33.502 74.681-74.684 74.681c-41.178 0-74.679-33.502-74.679-74.681s33.502-74.682 74.679-74.682zM519.287 675.546c13.726 0 24.896-11.167 24.896-24.893s-11.17-24.894-24.896-24.894c-13.726 0-24.892 11.168-24.892 24.894s11.166 24.893 24.892 24.893zM397.556 518.822c12.742 15.347 18.745 34.739 16.904 54.601-1.842 19.866-11.308 37.822-26.658 50.564-15.346 12.742-34.735 18.746-54.6 16.905-19.863-1.842-37.82-11.308-50.564-26.656-12.742-15.348-18.745-34.741-16.905-54.602 1.842-19.861 11.308-37.82 26.658-50.56 13.53-11.238 30.202-17.233 47.573-17.233 2.332 0 4.677 0.111 7.026 0.329 19.863 1.839 37.822 11.307 50.564 26.654zM359.25 550.626c-4.248-5.116-10.233-8.269-16.853-8.883-6.628-0.61-13.084 1.387-18.201 5.636-5.116 4.245-8.271 10.231-8.885 16.853-0.614 6.618 1.388 13.082 5.636 18.197s10.233 8.273 16.853 8.887c0.785 0.073 1.565 0.107 2.343 0.107 5.789 0 11.346-1.997 15.857-5.743 5.117-4.245 8.271-10.231 8.885-16.853 0.614-6.618-1.387-13.086-5.636-18.202zM705.357 640.885c-19.861 1.837-39.253-4.163-54.601-16.905s-24.815-30.701-26.658-50.562c-1.839-19.861 4.164-39.253 16.905-54.601 12.745-15.347 30.703-24.815 50.564-26.658 2.351-0.218 4.698-0.324 7.027-0.324 17.37 0 34.044 5.995 47.573 17.229 15.347 12.745 24.815 30.703 26.658 50.564 1.839 19.861-4.164 39.252-16.905 54.6-12.745 15.348-30.699 24.816-50.564 26.656zM723.247 564.224c-0.61-6.618-3.767-12.604-8.883-16.853-5.116-4.245-11.575-6.246-18.202-5.632-6.618 0.614-12.604 3.767-16.853 8.883-4.245 5.116-6.251 11.58-5.636 18.202 0.614 6.618 3.772 12.604 8.887 16.853 4.51 3.742 10.065 5.743 15.855 5.743 0.781 0 1.562-0.038 2.347-0.111 6.618-0.614 12.604-3.767 16.853-8.883 4.245-5.116 6.246-11.58 5.632-18.202zM512 138.667c-206.186 0-373.333 167.147-373.333 373.333s167.147 373.333 373.333 373.333c206.187 0 373.333-167.147 373.333-373.333s-167.147-373.333-373.333-373.333zM512 85.333c235.639 0 426.667 191.027 426.667 426.667 0 235.642-191.027 426.667-426.667 426.667-235.642 0-426.667-191.025-426.667-426.667 0-235.639 191.025-426.667 426.667-426.667z" />
<glyph unicode="&#xe91a;" glyph-name="planner" d="M206.404 457.233c-68.788 0-124.775-55.851-124.995-124.591-0.282-10.432-1.075-131.588 107.319-239.987 9.76-9.762 25.591-9.766 35.353 0 108.395 108.399 107.6 229.555 107.319 239.987-0.22 68.74-56.207 124.591-124.995 124.591zM270.964 265.263c-12.524-43.341-34.2-83.012-64.56-118.229-30.36 35.217-52.035 74.889-64.56 118.229-11.152 38.601-10.46 65.835-10.455 66.010 0.012 0.32 0.018 0.64 0.018 0.964 0 41.353 33.644 74.999 74.996 74.999s74.997-33.647 74.997-74.999c0-0.32 0.003-0.546 0.015-0.866 0.009-0.273 0.7-27.507-10.452-66.108zM206.404 307.238c13.807 0 25 11.196 25 25.003s-11.193 24.998-25 24.998c-13.807 0-25-11.191-25-24.998s11.193-25.003 25-25.003zM890.867 844.365l39.147 54.762c11.806 16.512-0.017 39.54-20.335 39.54h-200.047c-13.807 0-24.998-11.193-24.998-25v-271.596h-19.089c-13.807 0-24.998-11.194-24.998-25s11.191-25.002 24.998-25.002h88.171c13.807 0 24.998 11.195 24.998 25.002s-11.191 25-24.998 25h-19.085v112.425h175.049c20.77 0 32.482 23.968 19.725 40.355l-38.537 49.515zM839.957 828.375l18.586-23.882h-123.913v84.173h126.447l-21.73-30.397c-6.438-9.001-6.187-21.163 0.61-29.895zM807.083 444.949c-19.904 60.117-76.659 102.067-141.41 102.067h-197.303c-10.142 29.427-38.089 50.633-70.913 50.633-32.79 0-60.712-21.164-70.878-50.535-52.817 2.010-95.17 45.585-95.17 98.885v53.3c0 54.58 44.403 98.983 98.98 98.983h106.946c10.321-29.098 38.106-50 70.699-50 32.589 0 60.373 20.902 70.694 50h36.151c13.807 0 24.998 11.194 24.998 25s-11.196 25-24.998 25h-36.151c-10.321 29.098-38.106 50-70.694 50-32.593 0-60.378-20.902-70.699-50h-106.946c-82.147 0-148.978-66.833-148.978-148.983v-53.3c0-81.004 64.982-147.111 145.552-148.942 10.483-28.791 38.125-49.408 70.497-49.408 32.354 0 59.985 20.595 70.481 49.365h197.734c39.454 0 74.428-23.424 90.155-58.091-24.401-12.39-41.173-37.717-41.173-66.91 0-29.188 16.772-54.515 41.173-66.906-15.727-34.667-50.701-58.091-90.155-58.091h-86.946c-10.321 29.094-38.106 49.993-70.699 49.993-32.589 0-60.373-20.898-70.694-49.993h-61.949c-13.807 0-24.998-11.196-24.998-25.003s11.194-24.998 24.998-24.998h61.945c10.321-29.103 38.11-50.005 70.699-50.005 32.593 0 60.382 20.902 70.699 50.005h86.946c64.751 0 121.502 41.946 141.41 102.067 32.973 7.881 57.566 37.577 57.566 72.93s-24.593 65.054-57.566 72.934zM508.028 848.283c13.786 0 24.998-11.215 24.998-25s-11.213-25-24.998-25c-13.786 0-24.998 11.215-24.998 25s11.213 25 24.998 25zM397.456 497.651c-13.785 0-24.998 11.213-24.998 24.998s11.213 24.998 24.998 24.998c13.785 0 24.998-11.213 24.998-24.998s-11.214-24.998-24.998-24.998zM508.028 197.013c-13.786 0-24.998 11.213-24.998 24.998s11.213 25.003 24.998 25.003c13.786 0 24.998-11.217 24.998-25.003s-11.213-24.998-24.998-24.998zM789.653 347.017c-13.786 0-24.998 11.217-24.998 24.998 0 13.786 11.213 25.003 24.998 25.003s24.998-11.217 24.998-25.003c0-13.781-11.213-24.998-24.998-24.998z" />
<glyph unicode="&#xe91b;" glyph-name="renovation" d="M693.577 436.493l-80.815 80.811 61.056 61.056 47.731-47.731c9.916-9.911 23.1-15.377 37.124-15.377s27.204 5.466 37.124 15.377l84.851 84.855c20.467 20.469 20.467 53.776 0 74.246l-190.921 190.918c-20.467 20.469-53.773 20.469-74.244 0l-84.855-84.853c-20.467-20.469-20.467-53.777 0-74.246l47.731-47.729-61.056-61.056-80.811 80.812c16.427 55.097 1.63 115.041-39.625 156.296-42.483 42.483-104.373 56.97-161.516 37.809-6.92-2.321-12.284-7.853-14.39-14.841s-0.691-14.563 3.793-20.32l62.595-80.345-35.526-35.527-80.344 62.598c-5.757 4.486-13.333 5.9-20.319 3.793-6.988-2.106-12.521-7.468-14.841-14.389-19.164-57.144-4.677-119.033 37.809-161.517 41.254-41.255 101.2-56.056 156.297-39.625l80.812-80.811-81.891-81.89c-4.218 4.207-9.93 6.571-15.888 6.571-5.967 0-11.689-2.372-15.909-6.592l-143.188-143.189c-17.001-16.998-26.362-39.599-26.362-63.637s9.361-46.643 26.361-63.637c17.545-17.549 40.591-26.321 63.639-26.321s46.094 8.772 63.639 26.317l143.188 143.189c8.785 8.785 8.785 23.036 0 31.821l-0.021 0.021 81.89 81.89 80.811-80.811c-16.431-55.095-1.63-115.042 39.625-156.297 30.084-30.089 69.897-46.131 110.865-46.131 16.887 0 33.971 2.726 50.65 8.32 6.921 2.321 12.284 7.855 14.391 14.844 2.108 6.985 0.691 14.562-3.793 20.318l-62.596 80.346 35.529 35.524 80.341-62.592c5.756-4.484 13.333-5.897 20.322-3.797 6.989 2.108 12.518 7.471 14.839 14.391 19.166 57.143 4.676 119.031-37.811 161.519-41.254 41.25-101.197 56.047-156.292 39.62zM560.252 758.672c0 1.158 0.286 3.392 2.202 5.303l84.851 84.853c1.911 1.911 4.143 2.197 5.303 2.197s3.392-0.285 5.303-2.197l190.916-190.918c1.911-1.911 2.197-4.143 2.197-5.304 0-1.158-0.286-3.391-2.197-5.302l-84.851-84.854c-1.911-1.911-4.143-2.197-5.303-2.197s-3.392 0.286-5.303 2.197l-190.921 190.919c-1.911 1.911-2.197 4.141-2.197 5.304zM352.256 629.318c-6.393 6.395-15.993 8.337-24.374 4.938-42.012-17.058-89.876-7.362-121.935 24.698-22.165 22.165-33.651 51.747-32.88 82.011l66.782-52.032c8.955-6.973 21.708-6.189 29.737 1.841l63.639 63.64c8.029 8.029 8.817 20.781 1.841 29.737l-52.029 66.781c30.249 0.77 59.844-10.717 82.009-32.881 32.060-32.058 41.753-79.92 24.696-121.932-3.402-8.379-1.457-17.979 4.938-24.373l90.802-90.801-42.428-42.428-90.799 90.801zM249.82 186.138c-17.545-17.54-46.095-17.545-63.639 0-8.499 8.499-13.181 19.802-13.181 31.821s4.682 23.322 13.181 31.821l127.279 127.279 63.639-63.642-127.279-127.279zM361.168 392.99l249.012 249.011 31.821-31.821-249.014-249.011-31.82 31.821zM850.931 283.038l-66.782 52.028c-8.956 6.98-21.709 6.191-29.739-1.839l-63.637-63.637c-8.030-8.030-8.815-20.783-1.839-29.739l52.028-66.782c-30.246-0.794-59.844 10.718-82.010 32.879-32.060 32.060-41.749 79.923-24.695 121.933 3.405 8.38 1.459 17.98-4.937 24.375l-90.803 90.803 42.428 42.423 90.803-90.799c6.391-6.396 15.991-8.341 24.371-4.941 42.014 17.058 89.877 7.364 121.937-24.695 22.161-22.165 33.647-51.746 32.875-82.010z" />
<glyph unicode="&#xe91c;" glyph-name="search" d="M122.618 901.382c78.511 78.511 184.995 122.618 296.027 122.618s217.515-44.107 296.026-122.618c78.515-78.511 122.62-184.996 122.62-296.027s-44.105-217.515-122.62-296.026c-78.511-78.515-184.994-122.62-296.026-122.62s-217.516 44.105-296.027 122.62c-78.511 78.511-122.618 184.994-122.618 296.026s44.107 217.516 122.618 296.027c0 0 0 0 0 0zM418.645 960c-94.058 0-184.263-37.364-250.772-103.873v0c-66.509-66.509-103.873-156.714-103.873-250.772s37.364-184.26 103.874-250.773v0c66.508-66.509 156.713-103.872 250.772-103.872s184.26 37.363 250.773 103.872c66.509 66.513 103.872 156.715 103.872 250.773s-37.363 184.263-103.872 250.772v0c-66.513 66.51-156.715 103.874-250.773 103.874zM669.466 354.577c12.497 12.497 32.759 12.493 45.257-0.004l299.904-299.947c12.493-12.497 12.493-32.759-0.004-45.252-12.497-12.497-32.759-12.497-45.257 0l-299.904 299.947c-12.497 12.501-12.493 32.759 0.004 45.257z" />
<glyph unicode="&#xe91d;" glyph-name="shopping" d="M408.807 887.89c-27.048-27.048-42.243-63.733-42.243-101.985v-76.297h288.459v76.297c0 38.252-15.198 74.937-42.244 101.985-27.051 27.048-63.735 42.243-101.986 42.243s-74.935-15.195-101.985-42.243zM340.811 658.408h-146.771l-57.241-513.218c-0.666-5.935-0.071-11.964 1.754-17.66 1.821-5.679 4.825-10.918 8.809-15.356 4.009-4.433 8.918-7.97 14.365-10.364 5.475-2.411 11.393-3.635 17.363-3.588h663.407c5.969-0.047 11.9 1.182 17.378 3.593 5.449 2.394 10.347 5.931 14.353 10.364 3.981 4.433 6.98 9.66 8.806 15.347 1.826 5.705 2.419 11.742 1.754 17.664l-57.242 513.218h-146.773c-0.051 0-0.098 0-0.149 0s-0.102 0-0.154 0h-339.352c-0.051 0-0.102 0-0.153 0s-0.102 0-0.153 0zM315.364 709.608v76.297c0 51.831 20.59 101.539 57.239 138.189s86.358 57.239 138.189 57.239c51.831 0 101.538-20.59 138.189-57.239v0c36.651-36.65 57.242-86.359 57.242-138.189v-76.297h144.226c13.043 0 24-9.802 25.442-22.762l59.776-535.951c1.481-13.137 0.149-26.423-3.878-38.993-4.028-12.561-10.667-24.145-19.503-33.975l-0.034-0.038c-8.845-9.792-19.669-17.621-31.761-22.942-12.058-5.303-25.105-8.009-38.285-7.919h-662.825c-13.182-0.090-26.227 2.615-38.281 7.923-12.101 5.316-22.922 13.146-31.761 22.938l-0.038 0.043c-8.827 9.822-15.473 21.402-19.503 33.967-4.028 12.574-5.353 25.86-3.881 38.985l59.778 535.964c1.446 12.96 12.402 22.762 25.443 22.762h144.227z" />
<glyph unicode="&#xe91e;" glyph-name="star" d="M466.351 859.869c18.163 36.125 36.523 43.491 45.598 43.491 9.011 0 27.26-7.274 45.214-43.371l75.072-150.143c7.996-16.258 21.359-30.156 35.166-40.342 13.862-10.228 31.083-18.857 48.849-21.818l136.107-22.613c0.004-0.001-0.004 0.001 0 0 37.986-6.335 50.453-21.307 53.338-30.278 2.863-8.9 1.515-28.224-25.843-55.398l-105.89-105.89c-13.756-13.756-22.959-32.149-28.032-49.873-5.077-17.741-6.976-38.14-2.756-56.977l30.34-131.174c11.324-49.143-0.090-66.829-5.751-70.959-5.713-4.164-26.189-9.583-69.675 16.098 0.009-0.009-0.009 0.004 0 0l-127.543 75.503c0.004-0.004-0.004 0.004 0 0-17.66 10.462-38.921 14.703-58.381 14.703-19.494 0-40.747-4.254-58.496-14.579l-127.811-75.661c-43.131-25.596-63.627-20.156-69.447-15.91-5.795 4.228-17.207 22.025-5.925 70.78l30.341 131.2c4.223 18.837 2.324 39.236-2.754 56.977-5.074 17.724-14.275 36.117-28.030 49.873l-105.813 105.813c-27.179 27.179-28.611 46.558-25.744 55.535 2.856 8.943 15.221 23.891 53.177 30.221 0.005 0.001-0.006-0.001 0 0l136.203 22.629c17.583 2.986 34.671 11.648 48.422 21.843 13.711 10.167 27.062 24.051 35.055 40.3l75.010 150.021c0.004 0.008-0.004-0.008 0 0zM614.451 888.519c-22.579 45.382-57.877 78.841-102.502 78.841-44.582 0-79.987-33.402-102.781-78.749l-75.24-150.481c-2.254-4.602-7.642-11.151-15.761-17.171-8.091-5.999-15.941-9.283-20.973-10.149-0.015-0.003-0.030-0.005-0.045-0.008l-135.994-22.595c-49.071-8.178-90.282-32.059-103.639-73.886-13.347-41.798 6.341-85.139 41.456-120.254l105.813-105.813c4.165-4.164 8.83-12.011 11.756-22.234 2.908-10.159 3.154-19.375 1.851-25.284-0.006-0.030-0.012-0.055-0.018-0.085l-30.244-130.769c0 0 0 0 0 0-12.61-54.498-8.236-108.599 30.554-136.905 38.767-28.288 91.658-16.021 139.834 12.57l127.336 75.379c0.026 0.017 0.051 0.034 0.081 0.047 5.726 3.307 15.159 5.854 26.227 5.854 11.145 0 20.386-2.581 25.762-5.769l127.586-75.529c48.235-28.493 101.193-40.981 139.955-12.719 38.818 28.297 42.978 82.505 30.409 137.041l-30.251 130.799c-0.004 0.030-0.009 0.055-0.017 0.085-1.301 5.909-1.058 15.125 1.852 25.284 2.927 10.223 7.59 18.069 11.755 22.234l105.737 105.737c0.017 0.013 0.030 0.026 0.043 0.043 35.337 35.115 55.087 78.49 41.634 120.346-13.436 41.801-54.729 65.652-103.765 73.826l-136.107 22.613c-0.004 0.001 0.004-0.001 0 0zM614.451 888.519c-0.004 0.009 0.004-0.009 0 0v0z" />
<glyph unicode="&#xe91f;" glyph-name="taxi" d="M967.987 587.878h-64.205l-46.899 156.467c-15.565 51.917-62.362 86.732-116.531 86.732h-106.701c0 33.485-27.238 60.724-60.826 60.724h-121.651c-33.588 0-60.827-27.239-60.827-60.724h-106.7c-54.17 0-100.966-34.816-116.531-86.732l-46.9-156.467h-64.205c-16.793 0-30.413-13.619-30.413-30.413 0-31.642 27.648-59.392 60.826-75.674v-319.181c0-16.794 13.619-30.413 30.412-30.413h60.724c16.793 0 30.412 13.619 30.412 30.413v60.416h608.052v-60.416c0-16.794 13.619-30.413 30.413-30.413h60.723c16.794 0 30.413 13.619 30.413 30.413v319.181c33.178 16.282 60.826 44.032 60.826 75.674 0 16.794-13.619 30.413-30.413 30.413zM193.125 619.212l32.256 107.725c7.782 25.702 31.437 43.315 58.266 43.315h456.705c26.829 0 50.483-17.612 58.266-43.315l32.256-107.725c4.71-15.564-6.963-31.334-23.347-31.334h-591.054c-16.384 0-28.058 15.77-23.348 31.334zM299.212 344.678h-91.238c-33.587 0-60.723 27.238-60.723 60.723 0 33.587 27.136 60.826 60.723 60.826 50.688 0 121.652-40.55 121.652-91.238 0-16.691-13.62-30.31-30.413-30.31zM617.472 300.954c0-7.987-6.451-14.438-14.438-14.438h-182.068c-7.987 0-14.438 6.451-14.438 14.438v37.888c0 7.987 6.451 14.438 14.438 14.438h182.068c7.987 0 14.438-6.451 14.438-14.438v-37.888zM816.026 344.678h-91.238c-16.794 0-30.413 13.619-30.413 30.31 0 50.688 70.963 91.238 121.651 91.238 33.587 0 60.723-27.238 60.723-60.826 0-33.485-27.136-60.723-60.723-60.723z" />
<glyph unicode="&#xe920;" glyph-name="theater" d="M411.237 438.298c14.285-8.247 32.552-3.354 40.8 10.931 9.037 15.654 29.052 21.018 44.706 11.977 14.285-8.247 32.55-3.354 40.798 10.931s3.354 32.55-10.931 40.798c-44.224 25.536-100.772 10.385-126.304-33.839-8.247-14.285-3.353-32.55 10.932-40.798zM473.276 297.673c-25.135-43.537-80.809-58.458-124.348-33.318-14.285 8.247-32.551 3.354-40.799-10.935-8.247-14.285-3.353-32.55 10.932-40.798 72.108-41.63 164.314-16.926 205.943 55.185 8.247 14.285 3.354 32.55-10.931 40.798s-32.55 3.354-40.798-10.931zM206.010 383.3c14.285-8.247 32.551-3.354 40.799 10.931 9.038 15.654 29.054 21.018 44.707 11.981 14.285-8.247 32.551-3.354 40.799 10.927 8.248 14.285 3.354 32.555-10.93 40.802-44.224 25.536-100.774 10.381-126.307-33.843-8.247-14.285-3.353-32.55 10.932-40.798zM417.372 55.962c35.714-2.906 71.337 6.639 100.811 27.012v0c118.148 81.668 172.203 228.791 135.027 367.526 0 0 0 0 0 0l-60.203 224.682c-3.452 12.881-15.023 21.913-28.356 22.132-174.041 2.872-345.405-43.046-494.691-132.553-11.437-6.857-16.942-20.463-13.491-33.344l60.203-224.683c37.173-138.735 157.546-239.117 300.699-250.773v0zM484.22 132.113c-18.129-12.531-40.038-18.402-62.001-16.614-117.994 9.609-217.209 92.348-247.849 206.694l-54.295 202.633c128.562 72.654 273.475 111.483 421.143 112.846l54.293-202.634c30.639-114.347-13.914-235.614-111.292-302.925zM506.569 752.813c32.823-39.119 91.145-44.221 130.266-11.397 12.634 10.602 14.281 29.441 3.678 42.077s-29.44 14.284-42.074 3.682c-13.85-11.619-34.492-9.812-46.11 4.034-10.603 12.636-29.444 14.284-42.078 3.682-12.638-10.602-14.285-29.441-3.682-42.077zM810.082 768.659c-13.845-11.619-34.492-9.814-46.11 4.034-10.603 12.636-29.444 14.283-42.078 3.68-12.638-10.603-14.285-29.442-3.682-42.077 32.828-39.118 91.149-44.221 130.27-11.394 12.634 10.603 14.281 29.442 3.678 42.077s-29.44 14.283-42.078 3.68zM629.658 342.81c21.773-3.802 44.258-2.935 65.937 2.735 138.953 36.335 240.068 156.096 252.582 299.177l20.275 231.725c0.073 0.865 0.111 1.734 0.111 2.603 0 12.375-7.633 23.471-19.187 27.895-162.564 62.221-339.298 77.684-510.195 44.635-13.090-2.532-22.918-13.436-24.080-26.72l-20.273-231.724c0-0.001 0 0.001 0 0-1.024-11.694-1.425-23.325-1.251-34.85 0.25-16.493 13.822-29.661 30.315-29.411s29.659 13.822 29.412 30.315c-0.145 9.532 0.188 19.12 1.028 28.735l18.287 208.986c145.655 24.3 295.113 11.224 434.338-37.999l-18.283-208.984c-10.317-117.93-93.662-216.648-208.192-246.595-13.333-3.486-27.157-4.019-40.546-1.681-16.252 2.837-31.723-8.034-34.56-24.282-2.837-16.252 8.034-31.723 24.282-34.56zM762.108 481.634c12.638 10.603 14.285 29.44 3.682 42.078-44.855 53.457-118.831 67.887-179.14 39.765-14.95-6.972-21.419-24.742-14.447-39.693s24.742-21.414 39.689-14.443c36.446 16.994 81.109 8.188 108.139-24.026 10.603-12.638 29.444-14.285 42.078-3.682z" />
<glyph unicode="&#xe921;" glyph-name="time" d="M501.333 714.667c17.673 0 32-14.327 32-32v-160c0-17.673-14.327-32-32-32s-32 14.327-32 32v160c0 17.673 14.327 32 32 32zM478.707 545.297c12.501 12.493 32.759 12.493 45.257-0.004l199.979-200.021c12.493-12.501 12.493-32.759-0.004-45.257-12.501-12.493-32.759-12.493-45.257 0.004l-199.979 200.021c-12.493 12.501-12.493 32.759 0.004 45.257zM501.333 874.667c-194.404 0-352-157.596-352-352 0-194.402 157.596-352 352-352 194.402 0 352 157.598 352 352 0 194.404-157.598 352-352 352zM85.333 522.667c0 229.751 186.249 416 416 416s416-186.249 416-416c0-229.751-186.249-416-416-416s-416 186.249-416 416z" />
<glyph unicode="&#xe922;" glyph-name="voucher" horiz-adv-x="983" d="M954.683 576.59c15.663 0 28.357 12.698 28.357 28.357v151.238c0 15.661-12.698 28.357-28.357 28.357h-926.327c-15.66 0-28.356-12.695-28.356-28.357v-151.238c0-15.659 12.697-28.357 28.356-28.357 46.908 0 85.071-38.158 85.071-85.070 0-46.907-38.162-85.070-85.071-85.070-15.66 0-28.356-12.698-28.356-28.357v-151.237c0-15.663 12.697-28.357 28.356-28.357h926.327c15.663 0 28.357 12.698 28.357 28.357v151.237c0 15.659-12.698 28.357-28.357 28.357-46.907 0-85.070 38.162-85.070 85.070 0 46.911 38.162 85.070 85.070 85.070zM926.327 352.584v-97.37h-595.495v85.070c0 15.663-12.697 28.357-28.357 28.357s-28.357-12.698-28.357-28.357v-85.070h-217.405v97.37c64.637 13.177 113.428 70.468 113.428 138.936s-48.791 125.762-113.428 138.935v97.373h217.404v-85.071c0-15.661 12.697-28.357 28.356-28.357s28.357 12.697 28.357 28.357v85.071h595.497v-97.373c-64.639-13.175-113.431-70.466-113.431-138.935s48.796-125.764 113.431-138.936zM302.473 557.687c-15.661 0-28.357-12.698-28.357-28.357v-75.62c0-15.659 12.697-28.357 28.357-28.357s28.357 12.698 28.357 28.357v75.62c0.002 15.659-12.695 28.357-28.357 28.357z" />
<glyph unicode="&#xe923;" glyph-name="website" d="M512 938.667c-235.52 0-426.667-191.147-426.667-426.667s191.147-426.667 426.667-426.667 426.667 191.147 426.667 426.667-191.147 426.667-426.667 426.667zM847.36 373.76l-9.813 2.56c-45.653 11.52-92.16 20.48-138.667 27.307 10.24 72.107 10.24 145.067 0 217.173 46.507 6.827 93.013 15.36 138.667 27.307l9.813 2.56c17.493-42.667 27.307-89.173 27.307-138.24s-9.813-95.573-27.307-138.24zM176.64 373.76c-17.493 42.667-27.307 89.173-27.307 138.24s9.813 95.573 27.307 138.24l9.813-2.56c45.653-11.52 92.16-20.48 138.667-27.307-10.24-72.107-10.24-145.067 0-217.173-46.507-6.827-92.587-15.36-138.667-27.307l-9.813-2.56zM388.693 613.12c81.92-7.68 164.693-7.68 246.613 0 9.813-66.987 9.813-135.253 0-202.24-81.92 7.68-164.693 7.68-246.613 0-9.813 66.987-9.813 135.253 0 202.24zM816.64 708.693c-42.667-10.667-85.76-18.773-129.28-25.173-13.653 59.307-34.133 117.333-61.867 172.8 79.36-26.027 146.773-78.933 191.147-148.053zM545.28 872.96c0.853-2.987 1.28-5.973 2.987-8.533 34.56-59.733 59.307-122.88 75.093-188.16-73.813-6.827-148.48-6.827-222.293 0 15.787 65.28 40.533 128.427 75.093 188.16 1.707 2.56 2.133 5.547 2.987 8.533 11.093 0.853 22.187 1.707 33.28 1.707s22.613-0.853 33.28-1.707zM398.933 856.32c-27.733-55.467-48.213-113.493-61.867-172.8-43.52 5.973-86.613 14.507-129.28 25.173 44.8 69.12 111.787 121.6 191.147 148.053zM207.36 315.307c42.667 10.667 85.76 18.773 129.28 25.173 13.653-59.307 34.133-117.333 61.867-172.8-79.36 26.027-146.773 78.933-191.147 148.053zM478.72 151.040c-0.853 2.987-1.28 5.973-2.987 8.533-34.56 59.733-59.307 122.88-75.093 188.16 73.813 6.827 148.48 6.827 222.293 0-15.787-65.28-40.533-128.427-75.093-188.16-1.707-2.56-2.133-5.547-2.987-8.533-11.093-0.853-22.187-1.707-33.28-1.707s-22.613 0.853-33.28 1.707zM625.067 167.68c27.733 55.467 48.213 113.493 61.867 172.8 43.52-5.973 86.613-14.507 129.28-25.173-44.8-69.12-111.787-121.6-191.147-148.053z" />
<glyph unicode="&#xe924;" glyph-name="zoom-in" d="M853.333 486.4h-682.667v51.2h682.667v-51.2zM486.4 170.667v682.667h51.2v-682.667h-51.2z" />
<glyph unicode="&#xe925;" glyph-name="zoom-out" d="M853.333 486.4h-682.667v51.2h682.667v-51.2z" />
<glyph unicode="&#xe926;" glyph-name="bus" d="M959.974 755.824h-64.030v60.981c0 67.302-57.284 121.862-127.945 121.862h-512c-70.663 0-127.946-54.559-127.946-121.861v-60.982h-64.027c-35.361 0-64.027-27.302-64.027-60.982v-99.625c0-12.279 10.452-22.238 23.346-22.238h17.335c12.894 0 23.346 9.958 23.346 22.238v99.626h64.027v-587.272c0-12.284 10.452-22.238 23.346-22.238h81.254c12.893 0 23.346 9.954 23.346 22.238v38.746h512v-38.746c0-12.284 10.453-22.238 23.347-22.238h81.254c12.894 0 23.343 9.954 23.343 22.238v587.272h64.030v-99.626c0-12.279 10.449-22.238 23.343-22.238h17.335c12.894 0 23.347 9.958 23.347 22.238v99.626c0 33.679-28.663 60.981-64.026 60.981zM351.987 877.684h320.026c17.651 0 31.962-13.629 31.962-30.44s-14.31-30.44-31.962-30.44h-320.026c-17.651 0-31.96 13.629-31.96 30.44s14.309 30.44 31.96 30.44zM296.566 289.327h-81.132c-12.957 0-23.461 10.001-23.461 22.345v16.29c0 12.339 10.504 22.345 23.461 22.345h81.132c12.957 0 23.461-10.005 23.461-22.345v-16.29c0-12.343-10.504-22.345-23.461-22.345zM479.987 451.021h-256.054c-17.651 0-31.96 13.628-31.96 30.438v243.925c0 16.812 14.309 30.44 31.96 30.44h256.054v-304.803zM808.567 289.327h-81.135c-12.958 0-23.458 10.001-23.458 22.345v16.29c0 12.339 10.5 22.345 23.458 22.345h81.135c12.958 0 23.458-10.005 23.458-22.345v-16.29c0-12.343-10.5-22.345-23.458-22.345zM800.068 451.021h-256.055v304.803h256.055c17.651 0 31.957-13.628 31.957-30.44v-243.925c0-16.811-14.306-30.438-31.957-30.438z" />
<glyph unicode="&#xe927;" glyph-name="changing-room" d="M158.060 316.245c34.938 0 63.26 28.322 63.26 63.262 0 34.935-28.323 63.258-63.26 63.258s-63.26-28.322-63.26-63.258c0-34.94 28.323-63.262 63.26-63.262zM494.929 816.924c57.186 0 103.552 46.362 103.552 103.552s-46.366 103.552-103.552 103.552c-57.19 0-103.554-46.362-103.554-103.552s46.364-103.552 103.554-103.552zM611.644 256.247h-553.128v-128.538h553.128c16.567 0 29.999 13.436 29.999 30.003v68.531c0 16.572-13.431 30.003-29.999 30.003zM956.181 564.13l-119.765 238.826c-28.527 57.052-86.835 93.092-150.609 93.092h-0.017c-44.143 0-86.455-17.546-117.636-48.796l-204.711-205.052c-23.526-23.526-27.65-59.087-12.41-86.855 17.724 13.79 39.972 22.029 64.114 22.029h90.197l145.971 146.312 138.786-275.78-0.162-417.894c-0.009-16.576 13.427-30.012 29.999-30.012h112.58c16.567 0 29.999 13.431 29.999 29.999v507.298c0 9.318-2.167 18.505-6.336 26.833zM284.579 316.245h111.914c34.939 0 63.261 28.322 63.261 63.262v48.653h37.299c24.636 0 44.608 19.968 44.608 44.608 0 24.636-19.972 44.608-44.608 44.608h-81.911c-24.638 0-44.61-19.972-44.61-44.612v-36.454c0-16.154-12.414-30.054-28.55-30.814-17.228-0.815-31.45 12.915-31.45 29.965v37.227c0 0.026 0.002 0.051 0.002 0.077 0 24.64-19.972 44.612-44.61 44.612s-44.61-19.972-44.61-44.612v-93.261c0.004-34.931 28.326-63.258 63.264-63.258z" />
<glyph unicode="&#xe928;" glyph-name="charge-spot" d="M853.333 896c0 70.571-57.429 128-128 128h-426.667c-70.571 0-128-57.429-128-128v-768c0-70.571 57.429-128 128-128h426.667c70.571 0 128 57.429 128 128v768zM768 128c0-23.552-19.115-42.667-42.667-42.667h-426.667c-23.552 0-42.667 19.115-42.667 42.667v768c0 23.552 19.115 42.667 42.667 42.667h21.333c23.552 0 42.667-19.115 42.667-42.667s19.115-42.667 42.667-42.667h213.333c23.552 0 42.667 19.115 42.667 42.667s19.115 42.667 42.667 42.667h21.333c23.552 0 42.667-19.115 42.667-42.667v-768zM557.385 724.1c7.548-3.073 12.309-11.277 11.648-20.075l-12.356-164.667h108.023c6.767 0 12.958-4.164 16.021-10.778 3.063-6.609 2.475-14.545-1.515-20.535l-191.108-286.639c-4.74-7.108-13.214-9.903-20.749-6.844-7.531 3.059-12.297 11.234-11.665 20.015l11.699 162.423h-108.085c-6.758 0-12.944 4.156-16.010 10.761-3.066 6.601-2.492 14.528 1.484 20.518l191.833 288.947c4.736 7.137 13.231 9.946 20.779 6.873z" />
<glyph unicode="&#xe929;" glyph-name="clear" d="M1024 512c0 282.77-229.231 512-512 512s-512-229.23-512-512c0-282.769 229.23-512 512-512s512 229.231 512 512zM502.963 490.667l-220.625 220.625 30.17 30.17 220.625-220.625 219.78 219.783 30.174-30.17-219.785-219.783 219.785-219.785-30.174-30.17-219.78 219.785-220.625-220.625-30.17 30.17 220.625 220.625z" />
<glyph unicode="&#xe92a;" glyph-name="double-decker" d="M862.72 814.933c-6.827 68.267-17.92 121.173-35.84 142.080-72.107 85.76-578.987 92.16-636.587 0-14.080-22.613-23.893-75.52-30.72-142.080-21.333-2.56-37.973-20.48-37.973-42.667v-83.627c0-18.347 11.947-34.133 28.16-40.107-3.84-131.413-0.853-430.080 5.12-497.92 0-52.48 35.413-43.947 35.413-43.947h33.28v-56.747c0-22.613 23.040-40.96 52.053-40.96s52.053 18.347 52.053 40.96v56.747h385.707v-56.747c0-22.613 23.040-40.96 52.053-40.96s52.053 18.347 52.053 40.96v56.747h11.093s41.813-5.547 44.373 19.2c0 17.493 0 51.2 0.853 94.293 0.853 123.307 2.56 322.56 0 427.947 17.493 5.547 30.293 21.333 30.293 40.96v83.627c0 22.613-17.493 40.96-39.68 42.667zM256 768h213.333v-128h-213.333v128zM319.573 173.653c-30.72 0-55.467 24.747-55.467 55.467s24.747 55.467 55.467 55.467 55.467-24.747 55.467-55.467-24.747-55.467-55.467-55.467zM701.44 173.653c-30.72 0-55.467 24.747-55.467 55.467s24.747 55.467 55.467 55.467 55.467-24.747 55.467-55.467c0-30.72-24.747-55.467-55.467-55.467zM768 384h-512v128h512v-128zM768 640h-213.333v128h213.333v-128zM768 853.333h-512v42.667h512v-42.667z" />
<glyph unicode="&#xe92b;" glyph-name="elevator" d="M910.221 1023.999h-796.443c-62.578 0-113.778-51.2-113.778-113.778v-796.446c0-62.575 51.2-113.775 113.778-113.775h796.443c62.579 0 113.779 51.2 113.779 113.775v796.446c0 62.578-51.2 113.778-113.779 113.778zM312.889 874.665c39.253 0 71.111-31.858 71.111-71.111s-31.858-71.111-71.111-71.111c-39.253 0-71.111 31.857-71.111 71.111s31.857 71.111 71.111 71.111zM455.113 476.442c0-62.511 0-56.887-56.89-56.887v-213.333c0-56.887 0-56.887-56.889-56.887h-56.889c-56.889 0-56.889 0-56.889 56.887v213.333c-56.889 0-56.889 0-56.889 56.887v85.333c0 62.579 51.2 113.779 113.778 113.779h56.889c62.578 0 113.779-51.2 113.779-113.779v-85.333zM826.027 411.874l-91.021-145.634c-11.379-17.638-36.979-17.638-48.358 0l-91.021 145.634c-11.379 18.773 2.274 43.234 24.461 43.234h182.046c22.187 0 35.84-24.461 23.893-43.234zM802.133 568.887h-182.046c-22.187 0-35.84 24.461-23.893 43.805l91.025 145.635c11.375 17.636 36.975 17.636 48.354 0l91.021-145.635c11.379-19.344-2.274-43.805-24.461-43.805z" />
<glyph unicode="&#xe92c;" glyph-name="escalator" d="M106.662 554.667h41.173c22.827 0 44.16-8.96 60.373-24.96l492.16-492.16c24.107-24.32 56.32-37.547 90.453-37.547h126.511c58.88 0 106.667 47.787 106.667 106.667s-47.787 106.667-106.667 106.667h-41.178c-22.827 0-44.16 8.96-60.373 24.96l-492.16 492.163c-24.107 24.107-56.32 37.547-90.453 37.547h-126.507c-58.88 0-106.667-47.787-106.667-106.667s47.787-106.669 106.667-106.669zM789.346 682.664c0 28.16-11.093 55.040-31.36 75.52-20.267 20.053-46.933 31.147-75.307 31.147-58.88 0-106.667-47.787-106.667-106.667v-144.428l213.333-213.333v357.761zM682.679 810.672c58.91 0 106.667 47.756 106.667 106.667s-47.757 106.667-106.667 106.667c-58.91 0-106.667-47.757-106.667-106.667s47.757-106.667 106.667-106.667z" />
<glyph unicode="&#xe92d;" glyph-name="ev" d="M384.706 710.196v264.256c0 27.35-22.197 49.548-49.548 49.548s-49.548-22.198-49.548-49.548v-264.256c0-27.351 22.198-49.548 49.548-49.548s49.548 22.197 49.548 49.548zM781.099 710.196v264.256c0 27.35-22.195 49.548-49.545 49.548-27.354 0-49.549-22.198-49.549-49.548v-264.256c0-27.351 22.195-49.548 49.549-49.548 27.349 0 49.545 22.197 49.545 49.548zM913.225 181.696c0-48.162-19.157-94.404-53.18-128.495-34.091-34.022-80.337-53.18-128.495-53.18h-396.385c-48.161 0-94.406 19.157-128.495 53.18-34.023 34.091-53.181 80.333-53.181 128.495v462.448c0 63.884 51.728 115.612 115.612 115.612h528.515c63.881 0 115.61-51.728 115.61-115.612v-462.448zM487.377 563.482l-66.131-165.163c-6.078-15.262-4.228-32.567 4.955-46.178 9.251-13.675 24.641-21.803 41.025-21.803h58.995l-38.912-97.178c-10.172-25.37 2.18-54.238 27.618-64.414 25.365-10.172 54.238 2.18 64.41 27.55l66.129 165.158c6.080 15.262 4.228 32.572-4.954 46.178-9.25 13.679-24.64 21.803-41.024 21.803h-58.995l38.912 97.182c10.172 25.365-2.18 54.238-27.618 64.41-25.365 10.175-54.238-2.18-64.41-27.546z" />
<glyph unicode="&#xe92e;" glyph-name="facebook" d="M591.3 0v467.059h156.71l23.509 182.077h-180.22v116.229c0 52.698 14.575 88.612 90.231 88.612l96.333 0.040v162.855c-16.657 2.165-73.847 7.129-140.407 7.129-138.987 0-234.139-84.837-234.139-240.602v-134.262h-157.185v-182.077h157.185v-467.059h187.983z" />
<glyph unicode="&#xe92f;" glyph-name="fast-ev" d="M591.424 979.072c13.21-5.634 21.542-20.675 20.386-36.803l-21.623-301.89h189.043c11.836 0 22.669-7.636 28.032-19.757 5.359-12.121 4.335-26.672-2.65-37.646l-334.438-525.508c-8.299-13.035-23.125-18.159-36.309-12.548s-21.521 20.595-20.414 36.693l20.474 297.775h-189.152c-11.826 0-22.652 7.625-28.017 19.725-5.365 12.105-4.361 26.641 2.598 37.623l335.703 529.735c8.294 13.085 23.155 18.235 36.369 12.601z" />
<glyph unicode="&#xe930;" glyph-name="gift-card-filled" d="M421.393 722.412c-14.74 0-30.853-5.295-41.975-17.844-14.566-16.432-19.132-65.538-18.592-90.32 24.593-0.595 71.613 0.057 90.663 18.999 19.917 19.808 25.37 54.42 4.19 75.485-9.22 9.168-21.53 13.68-34.287 13.68zM233.671 722.412c14.741 0 30.854-5.295 41.975-17.844 14.566-16.432 19.132-65.538 18.592-90.32-24.593-0.595-71.616 0.057-90.663 18.999-19.918 19.808-25.368 54.42-4.188 75.485 9.218 9.168 21.526 13.68 34.284 13.68zM502.089 755.235c37.402-37.188 42.385-95.801 16.759-140.986h505.152v165.004c0 51.788-42.061 93.772-93.943 93.772h-569.689v-101.247c46.040 25.978 104.217 20.751 141.721-16.544 21.308-21.187-37.504 37.295 0 0zM222.565 429.687l-46.607 46.306 72.409 72.614h-248.366v-303.859c0-51.789 42.061-93.773 93.943-93.773h200.663v350.959l-72.041-72.247zM406.318 548.608l71.442-72.013-46.724-46.187-70.668 71.232v-350.665h569.689c51.883 0 93.943 41.984 93.943 93.773v303.859h-617.682zM136.124 614.249c-25.629 45.192-20.637 103.8 16.758 140.986 37.505 37.295 95.68 42.52 141.723 16.544v101.247h-200.663c-51.882 0-93.943-41.984-93.943-93.772v-165.004h136.124z" />
<glyph unicode="&#xe931;" glyph-name="information-desk" d="M405.366 1013.183c-87.153-18.539-167.959-59.498-234.437-118.828s-116.323-134.979-144.613-219.471c-28.29-84.493-34.045-174.904-16.696-262.302 17.349-87.394 57.201-168.755 115.619-236.032 6.959-8.367 11.073-18.735 11.747-29.594 0.674-10.863-2.127-21.658-7.997-30.818l-23.532-37.918c-4.811-7.753-7.463-16.653-7.68-25.771-0.218-9.122 2.006-18.138 6.442-26.112s10.922-14.618 18.787-19.243c7.866-4.625 16.824-7.066 25.948-7.066h348.349c132.343-1.429 260.279 47.497 357.901 136.862 97.621 89.37 157.628 212.497 167.868 344.448 4.681 78.741-8.879 157.495-39.616 230.136s-77.828 137.208-137.6 188.673c-59.776 51.465-130.62 88.44-207.023 108.045-76.399 19.606-156.297 21.313-233.465 4.989zM512.004 837.787c14.165-0.001 28.006-4.201 39.782-12.070 11.772-7.869 20.949-19.052 26.368-32.136s6.835-27.48 4.070-41.37c-2.761-13.889-9.583-26.647-19.597-36.66s-22.771-16.832-36.659-19.595c-13.892-2.762-28.288-1.344-41.37 4.076-13.086 5.42-24.269 14.597-32.137 26.372s-12.066 25.618-12.066 39.78c0.004 18.991 7.548 37.203 20.975 50.631 13.431 13.428 31.642 20.972 50.633 20.972zM569.276 232.742h-57.271c-6.11-0.004-12.164 1.199-17.809 3.537-5.649 2.338-10.782 5.769-15.104 10.091s-7.748 9.451-10.086 15.1c-2.338 5.649-3.541 11.699-3.541 17.813v239.868h-10.726c-12.343 0-24.183 4.902-32.91 13.632s-13.632 20.565-13.632 32.909 4.904 24.183 13.632 32.912c8.726 8.729 20.566 13.632 32.91 13.632h57.267c6.114 0.002 12.169-1.201 17.813-3.54 5.649-2.338 10.782-5.766 15.104-10.089 4.322-4.32 7.748-9.453 10.086-15.102 2.338-5.645 3.541-11.699 3.541-17.813v-239.868h10.726c12.343 0 24.179-4.902 32.909-13.632s13.632-20.565 13.632-32.909c0-12.343-4.902-24.183-13.632-32.909-8.73-8.73-20.565-13.632-32.909-13.632z" />
<glyph unicode="&#xe932;" glyph-name="instagram" d="M1021.201 722.941c-2.402 54.409-11.2 91.815-23.804 124.227-13.001 34.405-33.007 65.208-59.213 90.815-25.609 26.005-56.614 46.212-90.62 59.012-32.602 12.604-69.811 21.403-124.22 23.802-54.818 2.602-72.218 3.204-211.247 3.204-139.025 0-156.427-0.602-211.039-3.001-54.409-2.399-91.815-11.205-124.22-23.802-34.413-13.003-65.216-33.006-90.822-59.215-26.005-25.606-46.204-56.613-59.012-90.619-12.604-32.608-21.403-69.81-23.802-124.219-2.602-54.816-3.204-72.218-3.204-211.243 0-139.029 0.602-156.429 3.001-211.042 2.399-54.409 11.205-91.814 23.809-124.228 13.003-34.406 33.202-65.207 59.207-90.816 25.606-26.005 56.613-46.212 90.619-59.012 32.608-12.604 69.81-21.402 124.227-23.799 54.604-2.406 72.014-2.999 211.043-2.999 139.025 0 156.429 0.593 211.038 2.999 54.413 2.398 91.819 11.196 124.22 23.799 68.821 26.607 123.23 81.020 149.837 149.828 12.595 32.606 21.402 69.82 23.799 124.228 2.398 54.613 2.999 72.013 2.999 211.042 0 139.025-0.201 156.427-2.598 211.039zM928.986 304.858c-2.202-50.010-10.603-77.013-17.604-95.019-17.207-44.608-52.612-80.013-97.22-97.22-18.005-7.002-45.205-15.403-95.019-17.596-54.012-2.406-70.212-3.004-206.839-3.004s-153.030 0.597-206.845 3.004c-50.010 2.193-77.015 10.594-95.018 17.596-22.2 8.205-42.407 21.21-58.808 38.212-17.004 16.602-30.006 36.608-38.211 58.807-7.002 18.001-15.402 45.21-17.597 95.019-2.407 54.012-3.001 70.217-3.001 206.844 0 136.629 0.594 153.030 3.001 206.838 2.196 50.010 10.596 77.015 17.597 95.019 8.204 22.208 21.207 42.407 38.414 58.816 16.597 17.003 36.601 30.006 58.808 38.202 18.004 7.002 45.212 15.401 95.019 17.605 54.010 2.399 70.217 3.001 206.838 3.001 136.832 0 153.028-0.602 206.844-3.001 50.010-2.204 77.018-10.604 95.019-17.605 22.199-8.197 42.406-21.199 58.807-38.202 17.007-16.605 30.007-36.609 38.212-58.816 7.002-18.004 15.403-45.204 17.604-95.019 2.398-54.010 2.999-70.209 2.999-206.838 0-136.627-0.602-152.631-2.999-206.643zM512.098 774.948c-145.222 0-263.049-117.82-263.049-263.050 0-145.233 117.828-263.053 263.049-263.053 145.233 0 263.053 117.82 263.053 263.053 0 145.231-117.82 263.050-263.053 263.050zM512.098 341.261c-94.211 0-170.633 76.416-170.633 170.637s76.422 170.634 170.633 170.634c94.225 0 170.637-76.413 170.637-170.634s-76.412-170.637-170.637-170.637zM785.553 723.939c33.92 0 61.419 27.498 61.419 61.411 0 33.921-27.499 61.411-61.419 61.411-33.916 0-61.41-27.49-61.41-61.411 0-33.913 27.494-61.411 61.41-61.411z" />
<glyph unicode="&#xe933;" glyph-name="logo" d="M412.754 797.331c20.528 8.163 10.274-3.344-6.036-21.649-14.148-15.878-32.854-36.869-39.977-54.571-10.392-77.468 72.105-42.954 144.55-12.646 34.471 14.421 66.665 27.89 85.495 27.89 61.344 0 38.34-121.951-23.006-190.549 138.027-38.11 329.731-221.036 345.067-243.902 2.309-3.442 7.963-10.061 14.784-18.049 26.003-30.442 68.963-80.736 8.219-50.548-5.433 1.351-10.383 2.7-15.025 3.965-21.561 5.878-36.416 9.929-61.656 3.656-5.932-1.473-11.576-3.803-17.156-6.104-23.273-9.604-45.418-18.74-82.529 36.591-61.346 103.658-184.029 188.007-237.704 213.413-35.787-58.433-145.702-185.974-299.060-198.17-207.040-15.243-230.041 141.674-84.35 243.902 118.172 82.912 261.549 59.347 327.311 48.538 6.781-1.114 12.739-2.093 17.755-2.806 5.989 11.906 13.292 24.707 20.479 37.303 20.414 35.784 39.874 69.895 25.526 77.026-10.224 5.081-47.713-13.55-82.93-31.052-17.608-8.752-34.649-17.22-47.429-22.301-38.34-15.243-107.354 7.622-99.686 53.354 7.668 53.354 74.131 94.003 107.359 106.707zM443.433 522.941c-81.794 27.947-259.183 56.402-314.393-53.354-68.25-121.951 79.103-251.524 214.709-91.463 116.251 137.216 115.467 137.575 102.019 143.717-0.746 0.341-1.529 0.698-2.335 1.099z" />
<glyph unicode="&#xe934;" glyph-name="luggage" d="M690.15 771.96v113.504c0 17.788-14.421 32.208-32.209 32.208h-291.884c-17.788 0-32.208-14.42-32.208-32.208v-113.504h-91.326v-665.635h538.951v665.635h-91.324zM625.732 772.216h-227.467v81.040h227.467v-81.040zM109.482 771.96c-60.368 0-109.482-49.112-109.482-109.48v-446.673c0-60.365 49.114-109.478 109.482-109.478h68.626v665.631h-68.626zM914.517 771.96h-68.625v-665.635h68.625c60.369 0 109.483 49.114 109.483 109.478v446.677c0 60.368-49.118 109.48-109.483 109.48z" />
<glyph unicode="&#xe935;" glyph-name="mini-bus" d="M862.912 730.003c-6.967 68.116-18.065 121.152-35.627 141.998-72.397 85.713-579.54 91.986-637.12 0-14.085-22.536-23.964-75.384-30.593-142.11-21.391-2.516-38.048-20.527-38.048-42.575v-83.441c0-18.557 11.756-34.198 28.17-40.304-3.887-131.422-0.733-268.535 5.089-336.73 0-52.642 35.363-43.908 35.363-43.908h33.147v-56.828c0-22.537 23.231-40.772 51.852-40.772 28.659 0 51.89 18.236 51.89 40.772v56.828h385.634v-56.828c0-22.537 23.211-40.772 51.87-40.772 28.621 0 51.853 18.236 51.853 40.772v56.828h10.893c0 0 41.617-5.709 44.284 19.081 0 68.006 4.284 218.718 0.751 360.977 17.446 5.466 30.182 21.542 30.182 40.884v83.441c0.017 22.574-17.451 40.885-39.59 42.688zM314.021 859.775h389.407v-58.914h-389.407v58.914zM319.58 250.035c-30.575 0-55.345 24.789-55.345 55.364 0 30.558 24.771 55.326 55.345 55.326s55.364-24.768 55.364-55.326c0-30.575-24.771-55.364-55.364-55.364zM701.346 250.035c-30.558 0-55.386 24.789-55.386 55.364 0 30.558 24.811 55.326 55.386 55.326s55.343-24.768 55.343-55.326c0.021-30.575-24.768-55.364-55.343-55.364zM771.716 492.301h-525.98v275.883h525.98v-275.883z" />
<glyph unicode="&#xe936;" glyph-name="mtr" d="M581.931 85.333h-118.515v240.973c-95.527-26.069-165.94-113.613-165.94-217.276h-118.515c0 169.297 123.075 310.43 284.454 338.598v128.742c-161.379 28.167-284.454 169.269-284.454 338.598h118.515c0-103.662 70.413-191.208 165.94-217.277v240.975h118.515v-240.975c95.526 26.070 165.939 113.615 165.939 217.277h118.515c0-169.298-123.076-310.432-284.454-338.598v-128.742c161.378-28.169 284.454-169.301 284.454-338.598h-118.515c0 103.663-70.413 191.206-165.939 217.276v-240.973z" />
<glyph unicode="&#xe937;" glyph-name="nursery" d="M150.83 648.533c1.365 0 9.899-1.024 23.211-1.024 35.84 0 104.448 6.144 146.773 48.811 21.504 21.504 34.475 48.128 41.984 73.387 29.696-51.541 84.652-87.040 148.14-87.040 94.208 0 170.667 76.459 170.667 170.667s-76.459 170.667-170.667 170.667c-88.406 0-160.428-67.584-168.961-153.6-30.379-1.024-96.939-8.875-141.653-53.248-57.003-57.003-64.512-146.432-64.853-150.187-0.683-9.216 6.144-17.408 15.36-18.432zM678.528 634.88c-17.067 8.875-36.523 13.653-55.979 13.653h-200.703c-47.787 0-92.16-21.845-121.515-59.733-61.781-79.189-164.864-230.059-164.864-349.867 0-174.080 209.237-238.933 341.332-238.933 37.547 0 68.267 30.72 68.267 68.267s-30.72 68.267-68.267 68.267c-61.439 0-110.25 20.821-140.628 38.571 40.277 8.192 67.925 24.917 83.968 37.547-29.696 42.667-45.739 92.843-45.739 145.749 0 28.331 22.869 51.2 51.2 51.2s51.199-22.869 51.199-51.2c0-84.651 68.949-153.6 153.6-153.6s153.6 68.949 153.6 153.6c0 9.557 7.509 17.067 17.067 17.067s17.067-7.509 17.067-17.067c0-103.424-84.309-187.733-187.733-187.733-19.115 0-37.205 2.731-54.613 8.192 0.341 0 0.341-0.341 0.683-0.341-9.216-11.605-14.336-26.283-14.336-41.984 0-37.547 30.72-68.267 68.267-68.267h34.475c2.731 0 255.659 7.509 255.659 256 0 121.515-81.579 225.963-242.005 310.613zM630.4 238.933c-65.877 0-119.467 53.589-119.467 119.467s53.589 119.467 119.467 119.467c65.877 0 119.467-53.589 119.467-119.467s-53.589-119.467-119.467-119.467z" />
<glyph unicode="&#xe938;" glyph-name="parking-filled" d="M573.999 690h-123.998v-119.999h123.998c33.075 0 60.002 26.923 60.002 59.999s-26.927 60-60.002 60zM874.001 1024h-724.001c-82.706 0-150-67.294-150-150v-724.001c0-82.705 67.294-149.999 150-149.999h724.001c82.705 0 149.999 67.294 149.999 149.999v724.001c0 82.706-67.294 150-149.999 150zM573.999 450.001h-123.998v-210.001c0-16.567-13.431-29.999-30.001-29.999h-60c-16.568 0-30 13.431-30 29.999v540c0 16.568 13.432 30 30 30h213.999c99.26 0 180.002-80.742 180.002-180 0-99.256-80.742-179.999-180.002-179.999z" />
<glyph unicode="&#xe939;" glyph-name="red-note" d="M133.76 1024h752.922c71.718 0 135.437-62.28 137.318-133.92v-752.962c-0.828-36.147-15.569-70.579-41.161-96.124s-60.049-40.23-96.201-40.994h-752.639c-35.597 1.655-69.236 16.768-94.114 42.283-24.877 25.519-39.134 59.529-39.886 95.155v752.322c1.72 70.52 63.24 132.24 133.76 134.24zM200.68 658.24c-0.52-79.479-0.24-159.002-0.64-238.519 0.312-1.267 0.324-2.59 0.036-3.861s-0.868-2.462-1.695-3.469c-0.827-1.011-1.877-1.813-3.068-2.347s-2.49-0.781-3.793-0.725c-9.56-0.559-19.16-0.239-28.76-0.32 6.44-16 13.4-31.437 20.6-46.921 18.080 0.602 38.72-3.157 54.16 8.683 13.88 10.321 18.32 28.681 18.040 45.201 0 80.759 0 161.557-0.36 242.319-18.16 0.080-36.36 0.12-54.52-0.040zM425 661.84c-13.547-31.12-27.36-62.106-41.44-92.961-4-9.237-8.84-21.478-0.44-29.837 10.76-9.762 26.56-6.003 39.76-6.882-9.16-23.121-21.2-45.082-28.92-68.762-4.28-11.678 6.4-23.561 18.080-23.68 21.159-1.438 42.398 0 63.599-0.559 6.921 15.479 13.879 30.921 20.681 46.481-12.361 0-24.841-0.879-37.001 1.557 13.158 33.041 28.762 65.003 42.722 97.643-17.079 2.001-36.403-3.558-52.002 3.081 7.599 25.599 21.44 49.079 31.202 73.999-18.803 0.080-37.521 0.2-56.241-0.080zM715.998 661.64v-20.84c-12.237 0-24.478 0-36.719 0 0-18.667 0-37.24 0-55.721 12.279 0 24.521 0 36.762-0.239 0.32-16 0.32-32.107 0-48.32-18.402-0.358-36.838 0-55.241-0.282-0.239-18.56-0.201-37.077 0-55.599 18.441-0.201 36.919 0 55.36 0 0-39.441 0-78.921 0-118.362 18.479 0 36.919 0 55.398 0 0 39.441 0 78.869 0 118.281 26.961 0 53.884 0.401 80.841 0 9.481 0.802 20.322-5.837 20.002-16.277 0.738-14.767 0.738-29.559 0-44.322 0.141-2.394-0.674-4.74-2.261-6.537-1.591-1.792-3.827-2.88-6.221-3.021-15.398-1.122-30.839 0-46.281-0.521 6.801-16 13.402-32 21.12-47.804 25.404 1.323 56.444-5.077 75.802 16 18.402 17.041 12.881 44.002 13.641 66.24-1.161 23.403 4.561 49.843-9.963 70.323-12.356 17.361-34.637 22.080-54.716 22.438-1.203 28.002 5.478 60.76-15.121 83.52-19.2 21.52-50.121 21.6-76.681 20.56v20.8c-18.799-0.2-37.282-0.24-55.723-0.32zM518.319 640.76c0-18.667 0-37.227 0-55.68 11.601 0 23.159 0 34.761 0 0-55.642 0-111.322 0-166.959-16.602-0.282-33.242 0-49.839-0.201-8.602-18.479-16.998-37.039-25.361-55.599 61.922-0.243 124.002 0 185.762 0 0 18.505 0 37.039 0 55.599-17.801 0-35.644 0-53.44 0.201 0 55.68 0 111.373 0 167.078 11.639 0 23.236 0 34.88 0 0 18.561 0 37.161 0 55.721-42.163-0.080-84.442 0-126.763-0.16zM883.721 635.64c-15.522-11.76-10.441-33.28-11.119-50.040 10.359 0 20.757-0.559 31.117 0.358 16.64 1.523 29.163 20.922 22.481 36.602-5.239 17.2-28.48 24.68-42.479 13.080zM108 585.118c-2.8-36.48-5.64-72.917-8.28-109.397-0.613-8.29-2.391-16.448-5.28-24.239 9.36-21.402 18.72-42.803 28.72-64 22.4 29.956 30.72 67.721 33.040 104.397 1.96 31.202 5.44 62.362 6.56 93.602-18.36-0.64-36.6-0.201-54.76-0.363zM292.52 585.118c2.667-33.839 5.333-67.665 8-101.478 2.92-33.92 11.68-68.48 32.4-96 9.88 21.163 19.32 42.522 28.68 64-3.034 7.808-4.92 16.013-5.6 24.358-2.64 36.361-5.52 72.721-8.32 109.082-18.453 0.107-36.88 0.119-55.28 0.038h0.12zM361.16 366.362c28.32-8.363 58.32-2.641 87.399-4.203 8.563 18.522 17.079 37.082 25.399 55.723-29.077 1.118-58.678-3.042-87.198 4.279-8.72-18.534-17.293-37.133-25.72-55.799h0.12zM771.081 584.917c4.045-0.58 8.542-0.218 13.082 0.154 8.926 0.725 18.005 1.463 24.077-4.954 0.094-0.887 0.175-1.771 0.252-2.658 0.742-8.947 0.585-17.924 0.427-26.923-0.085-4.8-0.171-9.604-0.115-14.413h-37.363c-0.239 16.265-0.358 32.529-0.358 48.794z" />
<glyph unicode="&#xe93a;" glyph-name="search-filled" d="M869.961 331.311c148.501 148.506 148.497 390.14 0 538.645-148.506 148.504-390.14 148.504-538.644 0-125.987-125.986-145.067-313.361-57.293-459.677 0 0 6.305-10.577-2.211-19.085-48.579-48.576-194.323-194.325-194.323-194.325-38.678-38.673-47.886-92.753-13.586-127.061l5.905-5.901c34.3-34.304 88.385-25.101 127.060 13.581 0 0 145.436 145.438 193.915 193.911 8.924 8.926 19.498 2.62 19.498 2.62 146.317-87.77 333.692-68.693 459.678 57.293zM401.634 401.63c-109.73 109.73-109.727 288.271 0.003 398 109.732 109.727 288.271 109.73 398.001 0 109.73-109.727 109.73-288.27 0-398-109.73-109.722-288.269-109.722-398.004 0z" />
<glyph unicode="&#xe93b;" glyph-name="sf" d="M654.029 507.115c71.364 48.273 113.971 128.745 113.971 215.302 0 142.775-114.833 258.917-256 258.917s-256-116.141-256-258.917c0-86.557 42.609-167.029 113.971-215.302 5.452-3.686 8.237-10.257 7.126-16.798l-76.732-447.65h423.27l-76.732 447.65c-1.109 6.541 1.673 13.111 7.125 16.798z" />
<glyph unicode="&#xe93c;" glyph-name="taxi-filled" d="M961.348 543.966c35.703 0.704 62.652 29.487 62.652 65.289 0 36.506-27.622 64.587-63.326 65.289-18.189 0-37.052 0.702-55.241 0-8.759 0-11.452 2.808-14.148 11.233-16.166 47.738-33.011 95.476-50.526 142.513-11.452 30.89-33.011 53.355-64.674 60.375-32.333 7.020-65.344 13.339-98.355 17.551-14.148 1.404-28.292 2.808-42.441 4.212 0 0.702 0 0.702 0 1.404 0 37.91-29.641 69.501-66.697 69.501h-113.178c-36.376 0-66.692-30.889-66.692-69.501v-1.404c-44.463-3.51-88.925-9.126-132.714-18.955-37.726-9.126-62.652-32.294-75.452-70.204-15.494-44.228-31.663-88.456-47.157-133.386-3.368-9.829-6.737-14.041-17.516-13.339-18.189 1.404-37.052 0.702-55.241 0-35.031-1.404-61.304-30.188-60.631-66.693 0.674-35.102 27.621-63.181 61.978-64.589h20.884c-2.695-7.718-4.042-13.338-6.737-18.953-17.516-43.529-25.6-89.161-23.579-136.196 0.674-23.164 0-46.332 0-69.5 0-65.289-0.674-130.577 0.674-195.87 0.674-36.506 26.947-68.096 60.631-77.222 53.894-14.042 103.746 25.276 105.767 83.541 0.674 14.042 0 28.083 0 43.529h584.751v-41.421c0.674-43.529 29.641-80.034 68.715-87.053 53.222-9.83 99.703 33.698 99.029 89.161-0.674 92.668 0.674 185.335-0.674 278.003-0.674 26.679-6.737 53.355-12.126 79.33-4.041 17.553-11.452 34.398-17.515 53.355 7.411 0 13.474 0 19.537 0zM234.452 689.989c11.452 35.102 22.905 69.501 33.684 104.603 2.695 8.425 6.063 10.531 14.147 10.531h460.121c6.063 0 10.778 0 12.8-7.722 18.863-59.673 37.726-119.346 56.589-179.019 0.674-2.106 1.348-4.914 2.018-8.425-202.099 0-402.182 0-604.285 0 8.758 27.379 16.842 53.355 24.926 80.032zM198.747 348.1c-35.031 0-62.652 28.783-63.325 65.289 0 35.802 28.294 65.988 62.652 65.289 34.357 0 61.978-29.487 62.652-64.589 0.674-36.506-26.947-65.988-61.978-65.988zM825.267 348.1c-35.034 0-62.652 29.483-62.652 65.289 0 35.802 28.966 65.289 63.326 64.585 34.355-0.7 62.652-30.886 61.978-66.692 0-34.398-28.297-63.181-62.652-63.181z" />
<glyph unicode="&#xe93d;" glyph-name="tesla" d="M620.553 924.667l-106.496-130.048-106.494 130.048c-125.541-5.384-248.76-35.667-362.496-89.088 35.025-46.967 83.104-82.582 138.24-102.4 2.048 52.565 47.445 66.56 95.573 71.68 29.942 2.942 60.034 4.082 90.112 3.414l145.065-808.276 145.067 807.935c30.080 0.669 60.173-0.471 90.112-3.413 48.128-5.12 93.525-19.114 95.573-71.68 55.138 19.818 103.215 55.432 138.24 102.4-113.711 53.539-236.928 83.938-362.496 89.429zM514.048 1024c-175.907-2.137-350.007-35.778-514.048-99.328 7.511-20.99 16.997-41.219 28.331-60.416 153.273 66.087 318.825 98.895 485.717 96.256 166.891 2.639 332.446-30.169 485.717-96.256 11.332 19.197 20.821 39.426 28.331 60.416-164.041 63.55-338.142 97.191-514.048 99.328z" />
<glyph unicode="&#xe93e;" glyph-name="washroom" d="M256 819.201c56.575 0 102.401 45.823 102.401 102.401-0.003 56.575-45.826 102.398-102.401 102.398s-102.4-45.823-102.4-102.401c0-56.575 45.823-102.398 102.4-102.398zM716.8 819.201c56.576 0 102.4 45.823 102.4 102.401-0.004 56.575-45.824 102.398-102.4 102.398-56.58 0-102.4-45.823-102.4-102.401 0-56.575 45.82-102.398 102.4-102.398zM332.8 767.999h-153.6c-56.32 0-102.4-46.080-102.4-102.398v-281.601h76.8v-383.996h204.799v383.996h76.802v281.601c0 56.319-46.082 102.398-102.4 102.398zM816.896 697.857c-13.824 41.983-52.992 70.145-97.024 70.145h-5.888c-44.032 0-83.2-28.159-97.024-70.145l-130.56-390.653h153.6v-307.2h153.6v307.2h153.6l-130.304 390.653z" />
<glyph unicode="&#xe93f;" glyph-name="wechat" d="M626.483 858.813c-69.282 61.383-161.165 95.188-258.71 95.188-97.562 0-189.445-33.805-258.735-95.188-70.32-62.297-109.039-145.414-109.039-234.047 0-102.961 53.437-199.204 144.023-261.365l-18.297-77.828c-2.766-11.785 1.812-24.073 11.617-31.168 5.234-3.789 11.407-5.7 17.594-5.7 5.406 0 10.828 1.459 15.64 4.407l91.836 56.124c23.781-6.353 48.195-10.462 72.969-12.399-5.523 23.616-8.328 47.787-8.328 72.35 0 47.424 10.368 93.406 30.813 136.687 19.5 41.259 47.258 78.212 82.517 109.822 71.241 63.883 165.406 99.063 265.148 99.063 5.444 0 10.876-0.125 16.282-0.328-16.994 54.164-49.421 103.711-95.33 144.383zM268.781 710.625c-5.594-5.578-13.336-8.797-21.219-8.797-7.898 0-15.641 3.219-21.219 8.797-5.578 5.586-8.781 13.321-8.781 21.203 0 7.898 3.203 15.641 8.781 21.219s13.321 8.797 21.219 8.797c7.883 0 15.625-3.219 21.219-8.797 5.586-5.578 8.781-13.321 8.781-21.219 0-7.883-3.195-15.617-8.781-21.203zM465.805 710.625c-5.602-5.578-13.342-8.797-21.218-8.797-7.898 0-15.642 3.219-21.219 8.797-5.586 5.586-8.781 13.321-8.781 21.203 0 7.898 3.195 15.641 8.781 21.219 5.595 5.578 13.322 8.797 21.219 8.797 7.876 0 15.616-3.219 21.218-8.797 5.577-5.578 8.781-13.321 8.781-21.219 0-7.883-3.204-15.617-8.781-21.203zM1024 369.195c0 157.461-142.865 285.571-318.468 285.571-175.612 0-318.477-128.11-318.477-285.571s142.865-285.568 318.477-285.568c38.025 0 75.11 5.922 110.413 17.63l78.784-29.734c3.443-1.301 7.027-1.929 10.586-1.929 7.543 0 14.942 2.837 20.625 8.196 8.341 7.889 11.452 19.853 8.004 30.805l-15.215 48.375c67.187 54.123 105.271 130.364 105.271 212.224zM615.006 424.303c-5.585-5.577-13.316-8.781-21.201-8.781-7.898 0-15.642 3.204-21.218 8.781-5.581 5.581-8.806 13.321-8.806 21.222 0 7.906 3.226 15.625 8.806 21.227 5.577 5.577 13.321 8.772 21.218 8.772 7.885 0 15.616-3.196 21.201-8.772 5.594-5.602 8.798-13.321 8.798-21.227 0-7.902-3.204-15.642-8.798-21.222zM822.921 424.303c-5.577-5.577-13.321-8.781-21.193-8.781-7.902 0-15.642 3.204-21.218 8.781-5.589 5.581-8.785 13.321-8.785 21.222 0 7.906 3.196 15.625 8.785 21.227 5.577 5.577 13.316 8.772 21.218 8.772 7.872 0 15.616-3.196 21.193-8.772 5.589-5.602 8.789-13.321 8.789-21.227 0-7.902-3.2-15.642-8.789-21.222z" />
<glyph unicode="&#xe940;" glyph-name="whatsapp" d="M829.461 829.8c-41.421 41.439-90.628 74.276-144.785 96.621-54.161 22.345-112.209 33.757-170.795 33.579-245.882 0-446.042-199.16-446.141-443.998-0.109-77.965 20.442-154.564 59.56-222.003l-63.3-229.999 236.5 61.739c65.464-35.465 138.745-54.025 213.198-53.999h0.183c245.858 0 445.999 199.181 446.118 444.002 0.149 58.385-11.315 116.222-33.728 170.139-22.409 53.917-55.317 102.839-96.811 143.919v0zM513.882 146.679h-0.162c-66.372-0.017-131.537 17.745-188.719 51.439l-13.54 8-140.34-36.638 37.46 136.179-8.82 13.999c-37.112 58.756-56.775 126.844-56.7 196.343 0 203.458 166.42 368.998 370.958 368.998 98.121 0.175 192.294-38.631 261.803-107.883 69.513-69.251 108.668-163.278 108.86-261.397-0.081-203.482-166.421-369.041-370.799-369.041zM717.261 423.061c-11.14 5.559-66.001 32.397-76.16 36.1-10.159 3.699-17.66 5.559-25.079-5.559-7.42-11.123-28.8-36.002-35.302-43.503-6.498-7.501-13.001-8.32-24.141-2.761s-47.078 17.263-89.66 55.061c-33.139 29.419-55.498 65.741-61.999 76.838-6.5 11.102-0.7 17.122 4.88 22.643 5.020 4.979 11.14 12.958 16.72 19.439 5.578 6.481 7.439 11.119 11.142 18.519 3.699 7.4 1.856 13.88-0.922 19.42-2.782 5.54-25.080 60.16-34.36 82.38-9.060 21.64-18.24 18.7-25.080 19.040-6.5 0.32-14 0.4-21.38 0.4-5.641-0.147-11.193-1.455-16.306-3.843s-9.68-5.805-13.414-10.037c-10.22-11.12-39.020-38-39.020-92.56s40-107.359 45.52-114.762c5.52-7.398 78.6-119.458 190.419-167.518 20.766-8.892 41.98-16.691 63.561-23.36 26.701-8.439 50.999-7.262 70.199-4.399 21.423 3.179 66.001 26.837 75.26 52.757 9.263 25.92 9.28 48.119 6.502 52.74-2.782 4.621-10.223 7.42-21.38 12.962z" />
<glyph unicode="&#xe941;" glyph-name="wheelchair" d="M468.971 822.181c55.676 0 100.907 45.179 100.907 100.908 0 55.747-45.231 100.911-100.907 100.911-55.737 0-100.93-45.164-100.93-100.911 0-55.729 45.193-100.908 100.93-100.908zM624.909 250.368c-26.816-93.107-112.649-161.485-214.274-161.485-123.065 0-223.145 100.087-223.145 223.113 0 91.072 54.941 169.455 133.347 204.092v94.587c-128.402-38.676-222.219-157.87-222.219-298.679 0-172.023 139.968-311.996 312.015-311.996 125.38 0 233.446 74.517 282.999 181.436l-35.23 69.214c-9.886-0.081-21.342-0.183-33.493-0.282zM918.899 130.581l-135.164 265.741c-10.091 19.883-30.481 32.397-52.791 32.397h-173.116v39.475h148.992c14.878 0 27.383 7.778 35.46 18.978 5.248 7.3 8.981 15.778 8.981 25.472 0 24.538-19.874 44.437-44.442 44.437h-148.992v133.894c0 36.824-27.302 88.884-88.853 88.884-49.088 0-88.882-39.8-88.882-88.884v-290.092c0-50.074 40.593-90.667 90.67-90.667h223.855l118.69-233.361c10.428-20.553 31.241-32.414 52.843-32.414 9.054 0 18.236 2.069 26.816 6.46 29.21 14.818 40.811 50.513 25.933 79.68z" />
<glyph unicode="&#xe942;" glyph-name="chevron-right" d="M377.751 868.418l356.419-356.418-356.419-356.42-30.17 30.174 326.25 326.246-326.25 326.249 30.17 30.17z" />
<glyph unicode="&#xe943;" glyph-name="ascend" d="M262.39 938.667h-50.617l-123.94-354.112h70.455l18.62 53.2h118.95l18.353-53.2h70.345l-122.167 354.112zM200.183 704.255l36.626 104.652 36.107-104.652h-72.733zM890.889 338.978l-126.349-126.353v726.042h-66.5v-726.042l-126.353 126.353-47.019-47.023 206.622-206.622 206.622 206.622-47.023 47.023zM86.167 439.915h302.573v-52.241l-202.566-235.375h199.241v-66.5h-299.248v52.245l202.567 235.375h-202.567v66.496z" />
<glyph unicode="&#xe944;" glyph-name="cutlery" d="M578.291 992c17.673 0 32-14.327 32-32v-303.729c0-44.326 24.047-83.075 59.955-103.849 9.89-5.717 15.979-16.273 15.979-27.699v-384.789c0-24.265 19.669-43.934 43.93-43.934 24.265 0 43.934 19.669 43.934 43.934v384.789c0 11.426 6.089 21.982 15.979 27.699 35.908 20.774 59.955 59.523 59.955 103.849v151.864c0 17.673 14.323 32 32 32 17.673 0 32-14.327 32-32v-151.864c0-61.255-29.969-115.48-75.934-148.862v-367.475c0-59.61-48.324-107.934-107.934-107.934-59.605 0-107.93 48.324-107.93 107.934v367.475c-45.965 33.382-75.934 87.607-75.934 148.862v303.729c0 17.673 14.327 32 32 32zM730.125 992c17.673 0 32-14.327 32-32v-224c0-17.673-14.327-32-32-32s-32 14.327-32 32v224c0 17.673 14.327 32 32 32zM882.001 992c17.673 0 32-14.327 32-32v-151.864c0-17.673-14.327-32-32-32s-32 14.327-32 32v151.864c0 17.673 14.327 32 32 32zM140.522 911.030c31.296 46.944 78.045 80.97 134.009 80.97s102.713-34.026 134.010-80.97c31.447-47.168 49.853-110.486 49.853-178.827 0-84.587-28.638-161.801-75.93-209.968v-382.302c0-59.605-48.32-107.934-107.932-107.934s-107.932 48.329-107.932 107.934v382.302c-47.295 48.166-75.932 125.381-75.932 209.968 0 68.34 18.41 131.659 49.855 178.827zM193.773 875.529c-23.519-35.279-39.106-85.859-39.106-143.326 0-77.273 28.368-140.135 64.978-172.097 6.96-6.080 10.954-14.865 10.954-24.107v-396.066c0-24.265 19.669-43.934 43.932-43.934s43.932 19.669 43.932 43.934v396.066c0 9.242 3.994 18.027 10.954 24.107 36.61 31.962 64.978 94.824 64.978 172.097 0 57.467-15.587 108.047-39.106 143.326-23.668 35.502-52.851 52.471-80.758 52.471s-57.090-16.969-80.758-52.471z" />
<glyph unicode="&#xe945;" glyph-name="descend" d="M86.167 938.667h302.573v-52.241l-202.566-235.375h199.241v-66.499h-299.248v52.241l202.567 235.375h-202.567v66.5zM571.686 685.023l126.353 126.35v-726.040h66.5v726.040l126.349-126.35 47.023 47.022-206.622 206.622-206.622-206.622 47.019-47.022zM262.39 439.893h-50.617l-123.94-354.112h70.455l18.62 53.201h118.95l18.353-53.201h70.345l-122.167 354.112zM200.183 205.483l36.626 104.653 36.107-104.653h-72.733z" />
<glyph unicode="&#xe946;" glyph-name="parking" d="M192 906.667c-41.237 0-74.667-33.429-74.667-74.667v-640c0-41.237 33.429-74.667 74.667-74.667h640c41.237 0 74.667 33.429 74.667 74.667v640c0 41.237-33.429 74.667-74.667 74.667h-640zM53.333 832c0 76.584 62.083 138.667 138.667 138.667h640c76.582 0 138.667-62.083 138.667-138.667v-640c0-76.582-62.084-138.667-138.667-138.667h-640c-76.584 0-138.667 62.084-138.667 138.667v640zM309.333 725.333c0 17.673 14.327 32 32 32h227.554c38.020 0 74.867-14.14 102.34-39.897 27.546-25.822 43.439-61.302 43.439-98.77 0-37.466-15.893-72.947-43.439-98.769-27.473-25.758-64.32-39.898-102.34-39.898h-195.554v-181.333c0-17.673-14.327-32-32-32s-32 14.327-32 32v426.667zM373.333 544h195.554c22.332 0 43.366 8.337 58.569 22.588 15.13 14.187 23.211 32.967 23.211 52.079s-8.081 37.894-23.211 52.079c-15.202 14.252-36.237 22.587-58.569 22.587h-195.554v-149.333z" />
<glyph unicode="&#xe947;" glyph-name="glacier" d="M991.799 272.333l-5.427 5.645c3.371 4.787 6.869 10.057 10.295 15.748 21.615 35.887 30.025 69.623 25.007 100.284-3.921 23.919-18.47 57.609-65.545 82.278-25.195 13.197-50.385 24.777-74.743 35.972-40.277 18.517-78.319 35.998-115.14 59.789-68.331 44.145-121.079 110.882-148.531 187.919-18.146 50.919-41.425 125.447-49.301 191.335-1.57 13.146-11.584 23.7-24.627 25.961-2.377 0.411-59.115 9.963-132.631-1.707-98.41-15.625-180.741-62.1-238.096-134.4-4.038-5.092-6.313-11.397-6.478-17.895-0.020-0.799-2.43-80.885-36.764-158.062-31.786-71.45-38.304-150.584-18.352-222.823 2.862-10.355 6.159-20.070 9.785-28.988 2.746-10.483 20.295-81.075 10.672-136.683-1.508-8.704 0.909-17.634 6.6-24.397s14.079-10.662 22.915-10.662h48.706v-103.121h-180.188c-16.543 0-29.954-13.414-29.954-29.956s13.412-29.956 29.954-29.956h880.172c1.498 0 2.991 0.026 4.476 0.077 45.043 1.523 83.631 28.587 100.698 70.63 17.353 42.761 8.354 89.894-23.501 123.012zM184.558 640.847c31.93 71.771 39.584 143.704 41.385 170.339 47.66 56.472 112.435 91.742 192.689 104.89 39.020 6.394 72.961 5.829 93.658 4.391 1.698-10.452 3.682-20.988 5.888-31.51l-42.769-42.767c-11.699-11.696-11.699-30.663 0-42.362 5.85-5.849 13.513-8.774 21.18-8.774 7.663 0 15.33 2.925 21.18 8.774l17.327 17.33c4.19-14.656 8.55-28.824 12.877-42.188l-32.627-32.628c-11.699-11.696-11.699-30.664 0-42.362 5.85-5.849 13.517-8.775 21.18-8.775 7.667 0 15.334 2.926 21.18 8.775l12.642 12.643c7.287-17.202 15.671-33.891 25.079-49.956l-20.173-20.174c-11.699-11.696-11.699-30.663 0-42.362 5.85-5.849 13.513-8.774 21.18-8.774 7.663 0 15.33 2.925 21.18 8.774l12.207 12.208c29.188-36.884 64.29-69.016 103.91-94.612 40.418-26.112 82.21-45.321 122.628-63.898 23.667-10.88 48.141-22.127 71.962-34.611 20.463-10.722 31.654-23.411 34.21-38.797 4.71-28.356-17.873-63.765-33.225-82.871h-212.638c-71.881 6.4-206.204 49.028-241.429 65.353-45.269 20.975-241.775 67.281-303.034 81.459-1.044 3.204-2.041 6.532-2.99 9.963-16.265 58.897-10.817 123.716 15.343 182.521zM188.667 383.010c43.197-10.172 91.277-21.884 134.639-33.054-5.915-8.657-11.582-18.193-16.968-28.621-3.703-7.172-6.832-13.926-9.374-19.785h-102.516c1.040 29.265-2.055 58.313-5.781 81.459zM270.054 241.643h47.3c12.912 0 24.369 8.273 28.433 20.531 4.483 13.521 19.524 49.109 40.503 70.946 30.096-8.439 53.271-15.714 63.759-20.574 39.543-18.325 157.837-55.706 237.726-67.767v-106.257h-417.72v103.121zM959.791 171.853c-8.171-20.122-25.818-32.567-47.215-33.289-0.815-0.030-1.63-0.043-2.449-0.043h-162.445v103.121h190.519l10.419-10.833c18.197-18.923 17.702-42.863 11.17-58.957z" />
<glyph unicode="&#xe948;" glyph-name="wifi" d="M93.916 606.452c-10.824 10.17-11.502 27.345-1.513 38.365 52.93 58.401 115.735 104.404 186.672 136.732 73.46 33.477 151.825 50.451 232.925 50.451s159.467-16.974 232.926-50.451c70.938-32.328 133.743-78.331 186.671-136.732 9.988-11.020 9.31-28.197-1.51-38.365-5.129-4.816-11.614-7.197-18.082-7.197-7.185 0-14.345 2.937-19.601 8.737-97.745 107.85-236.399 169.706-380.403 169.706-144.002 0-282.654-61.856-380.401-169.706-9.988-11.018-26.86-11.709-37.683-1.541zM770.999 485.090c9.783-11.204 26.637-12.211 37.645-2.249 11.008 9.967 11.994 27.127 2.21 38.332-75.87 86.871-184.798 136.692-298.854 136.692s-222.984-49.823-298.851-136.692c-9.787-11.209-8.798-28.369 2.208-38.332 5.082-4.599 11.407-6.861 17.71-6.861 7.35 0 14.67 3.076 19.939 9.109 65.755 75.29 160.155 118.473 258.994 118.473 98.842 0.002 193.242-43.179 258.999-118.473zM648.823 362.607c5.269-6.677 13.001-10.146 20.8-10.146 5.862 0 11.767 1.963 16.691 5.99 11.477 9.395 13.303 26.483 4.079 38.174-43.703 55.36-108.723 87.108-178.394 87.108-69.666 0-134.687-31.748-178.392-87.108-9.227-11.686-7.402-28.774 4.079-38.174 11.48-9.395 28.265-7.531 37.492 4.156 33.528 42.466 83.399 66.825 136.822 66.825 53.427 0 103.296-24.358 136.823-66.825zM512 309.598c31.846 0 57.754-26.377 57.754-58.799s-25.907-58.799-57.754-58.799c-31.842 0-57.749 26.377-57.749 58.799 0 32.418 25.907 58.799 57.749 58.799z" />
<glyph unicode="&#xe949;" glyph-name="play" d="M284.444 787.058c0 45.009 49.791 72.193 87.653 47.854l423.799-272.442c34.833-22.393 34.833-73.315 0-95.708l-423.799-272.443c-37.861-24.339-87.653 2.846-87.653 47.855v544.884z" />
<glyph unicode="&#xe94a;" glyph-name="loading" d="M509.302 970.77c17.66 0.646 32.5-13.15 33.144-30.81l5.134-140.598c0.644-17.662-13.15-32.5-30.814-33.146-17.66-0.644-32.5 13.15-33.144 30.812l-5.132 140.598c-0.644 17.662 13.15 32.5 30.814 33.146zM212.614 857.404c13.098 11.866 33.334 10.866 45.2-2.23l94.63-104.454c11.866-13.096 10.868-33.334-2.23-45.2s-33.334-10.868-45.2 2.23l-94.63 104.454c-11.866 13.098-10.866 33.334 2.23 45.2zM58.624 580.718c2.444 17.504 18.612 29.712 36.116 27.27l139.75-19.508c17.502-2.44 29.712-18.61 27.27-36.118-2.442-17.502-18.612-29.71-36.116-27.268l-139.75 19.508c-17.504 2.444-29.712 18.616-27.268 36.118zM292.952 378.402c9.366-14.99 4.81-34.73-10.178-44.096l-119.504-74.678c-14.988-9.37-34.728-4.808-44.094 10.176-9.366 14.99-4.808 34.73 10.18 44.096l119.504 74.678c14.988 9.366 34.73 4.808 44.096-10.176zM429.262 264.88c16.806-5.466 25.998-23.522 20.532-40.328l-43.536-133.842c-5.466-16.806-23.524-25.996-40.33-20.53s-26 23.522-20.532 40.328l43.536 133.842c5.466 16.806 23.524 25.996 40.33 20.53zM606.656 265.168c16.376 6.652 35.038-1.232 41.69-17.61l52.958-130.412c6.652-16.376-1.232-35.038-17.61-41.69-16.376-6.648-35.038 1.236-41.69 17.61l-52.958 130.414c-6.648 16.37 1.232 35.038 17.61 41.686zM742.272 379.034c8.256 15.63 27.614 21.606 43.244 13.35l124.822-65.938c15.626-8.252 21.602-27.614 13.346-43.238-8.256-15.63-27.614-21.602-43.244-13.35l-124.818 65.938c-15.63 8.252-21.606 27.614-13.35 43.238zM989.302 565.012c2.096-17.548-10.428-33.472-27.976-35.57l-140.078-16.75c-17.548-2.1-33.476 10.424-35.576 27.972s10.428 33.476 27.976 35.574l140.080 16.75c17.548 2.096 33.476-10.428 35.576-27.976z" />
<glyph unicode="&#xe94b;" glyph-name="whatsapp-solid" d="M512 1024c-282.317 0-512-229.667-512-512 0-99.334 28.483-195.1 82.55-278.266l-79.783-186.169c-5.5-12.8-2.633-27.699 7.233-37.564 6.533-6.537 15.267-10.001 24.133-10.001 4.533 0 9.117 0.899 13.45 2.765l186.167 79.804c83.15-54.101 178.917-82.569 278.25-82.569 282.334 0 512 229.666 512 512s-229.666 512-512 512zM774.798 328.732c0 0-42.564-54.602-73.33-67.368-78.199-32.364-188.602 0-314.369 125.736-125.733 125.766-158.116 236.166-125.733 314.366 12.766 30.8 67.367 73.333 67.367 73.333 14.8 11.534 37.8 10.1 51.066-3.166l61.767-61.767c13.267-13.266 13.267-35 0-48.266l-38.766-38.733c0 0-15.7-47.134 78.6-141.467 94.298-94.3 141.465-78.598 141.465-78.598l38.736 38.764c13.266 13.266 34.998 13.266 48.265 0l61.77-61.764c13.266-13.266 14.7-36.233 3.163-51.069z" />
<glyph unicode="&#xe94c;" glyph-name="ipostal" d="M391.334 1024c8.762-0.003 17.177-3.532 23.375-9.833 6.197-6.305 9.662-14.876 9.667-23.792v-874.748c0-8.922-3.467-17.485-9.667-23.795-6.199-6.306-14.609-9.869-23.375-9.873h-358.25c-8.77 0-17.215 3.567-23.417 9.873-6.195 6.31-9.667 14.874-9.667 23.795v874.748c0.005 8.916 3.47 17.487 9.667 23.792 6.201 6.309 14.647 9.833 23.417 9.833h358.25zM103.542 785.292c-15.532-0.003-28.121-12.593-28.125-28.125 0-15.535 12.591-28.121 28.125-28.125h225.041c15.537 0 28.167 12.588 28.167 28.125-0.004 15.534-12.632 28.125-28.167 28.125h-225.041zM103.542 897.792c-15.532-0.003-28.121-12.593-28.125-28.125 0-15.535 12.591-28.121 28.125-28.125h225.041c15.537 0 28.167 12.588 28.167 28.125-0.004 15.534-12.632 28.125-28.167 28.125h-225.041zM887.249 1024c8.713-0.003 17.088-3.527 23.249-9.833s9.621-14.876 9.626-23.792v-514.544h-304.542c-37.274-0.009-67.409-30.14-67.413-67.413v-326.46h-33.335c-8.717 0-17.084 3.567-23.249 9.873-6.165 6.31-9.626 14.874-9.626 23.795v874.748c0.004 8.916 3.465 17.487 9.626 23.792 6.161 6.304 14.537 9.833 23.249 9.833h372.416zM581.918 785.292c-15.531-0.003-28.122-12.593-28.126-28.125 0-15.535 12.591-28.121 28.126-28.125h225.041c15.535 0 28.164 12.588 28.164 28.125 0 15.534-12.629 28.125-28.164 28.125h-225.041zM581.918 897.792c-15.531-0.003-28.122-12.593-28.126-28.125 0-15.535 12.591-28.121 28.126-28.125h225.041c15.535 0 28.164 12.588 28.164 28.125 0 15.534-12.629 28.125-28.164 28.125h-225.041zM716.958 284.54c0-8.051 4.309-15.484 11.294-19.499 6.98-4.011 15.582-4.011 22.541 0.043l56.166 32.789 56.209-32.789c6.955-4.053 15.556-4.053 22.541-0.043 6.106 3.511 10.159 9.63 11.085 16.499l0.205 2.999v143.087h81.958c24.858 0 45.039-20.147 45.043-45.001v-337.583c0-24.862-20.181-45.043-45.043-45.043h-337.583c-24.853 0.004-45.001 20.186-45.001 45.043v337.583c0.009 24.849 20.151 44.992 45.001 45.001h75.584v-143.087zM671.957 127.002c-12.425-0.004-22.498-10.078-22.498-22.502 0-12.429 10.074-22.498 22.498-22.498h67.541c12.42 0.009 22.502 10.078 22.502 22.498-0.004 12.42-10.082 22.49-22.502 22.502h-67.541zM852.002 323.708l-33.668 19.669c-7.006 4.083-15.706 4.083-22.707 0l-33.668-19.669v103.919h90.044v-103.919z" />
</font>
</defs>
</svg>
